Золотое божество / Golden Kamuy [S01] (2018) WEBRip 720p | SHIZA Project, AniDub

 
 Статистика раздачи 
Размер: 4.69 ГБ   |  Зарегистрирован: 07 июл 2018, 19:53   |   .torrent скачан: 0 раз
Сидеров: 1  [ 0 байт/сек ]     Личеров: 0  [ 0 байт/сек ]  
  

Золотое божество / Golden Kamuy [S01] (2018) WEBRip 720p | SHIZA Project, AniDub

Сообщение explosiveone » 07 июл 2018, 20:10

Информация о фильме
Название: Золотое божество
Оригинальное название: Golden Kamuy
Год выхода: 2018
Жанр: исторический, приключения, драма
Режиссер: Намба Хитоси
Художник: Морикава Ацуси, Окубо Томоэ
В ролях: Кобаяси Тикахиро, Сирайси Харука, Ито Кэнтаро, Оцука Хотю, Цуда Кэндзиро, Хосоя Ёсимаса, Наката Дзёдзи, Номура Кэндзи, Суго Такаюки, Охара Саяка, Тэрасома Масаки, Ното Мамико, Сугита Томокадзу, Такэмото Эйдзи, Оцука Акио, Сэки Тосихико, Итидзо Миюки
О фильме:
История разворачивается в начале двадцатого века, после того, как армия Российской империи проиграла японской армии в борьбе за контроль над Маньчжурией и Жёлтым морем.Одним из участников этой войны был и Саичи Сугимото, которого прозвали «бессмертный». Теперь он бродит по заснеженным просторам острова Хоккайдо. Почему он там оказался? Однажды мужчина нашёл потерянную кем-то карту, указывающую на местоположение спрятанного золота айнов. B порыве сорвать куш Саичи отправился туда. Однако он не единственный, кто хочет быстро разбогатеть. Потому, с этих пор, его ожидает настоящая борьба за выживание...


World Art | MAL

Страна: Япония
Студия: Geno Studio
Продолжительность: 00:23:40
Язык: Русский, Японский
Перевод: Любительский (многоголосый, закадровый), Любительский (двухголосый, закадровый)

Файл
Качество: WEBRip
Формат: MKV
Кодек: H.264
Аудио кодек: AAC
Видео: 1280x720, 23.976 fps, 1800 kbps
Аудио RUS: 48.0 kHz, AAC, 2 ch, 192 kbps - SHIZA Project
Аудио RUS: 48.0 kHz, AAC, 2 ch, 192 kbps - AniDub
Аудио JAP: 44.1 kHz, AAC, 2 ch, 128 kbps
Субтитры: русские (встроенные полный перевод, ASS) - laci & Ryuji
Субтитры: русские (встроенные полный перевод, ASS) - Crunchyroll

Релиз от:
Озвучивание: nDrOiDze, Uninie, Daelit, Лизавета
Перевод: Crunchyroll
Тайминг и работа со звуком: yungcvhr (01-06), Saylot (01-12)

Релиз от:
Озвучивание: Jade, 9й Неизвестный
Перевод: GoggerToy
Тайминг и работа со звуком: Angrod

01. Вен камуй
02. Безликий
03. Камуй мосир
04. Жнец
05. Побег
06. Охотничий дух
07. Неразбериха
08. Глаза убийцы
09. Сияет
10. Попутчик
11. Убийственный отель! Собираемся!
12. Лживая лисица
General
Format : Matroska
Format version : Version 4 / Version 2
File size : 376 MiB
Duration : 23 min
Overall bit rate : 2 220 kb/s
Encoded date : UTC 2018-07-05 15:14:16
Writing application : mkvmerge v8.3.0 ('Over the Horizon') 64bit
Writing library : libebml v1.3.1 + libmatroska v1.4.2

Video
ID : 1
Format : AVC
Format/Info : Advanced Video Codec
Format profile : High@L4
Format settings, CABAC : Yes
Format settings, ReFrames : 6 frames
Codec ID : V_MPEG4/ISO/AVC
Duration : 23 min
Bit rate : 1 776 kb/s
Width : 1 280 pixels
Height : 720 pixels
Display aspect ratio : 16:9
Frame rate mode : Variable
Frame rate : 23.976 (23976/1000) FPS
Color space : YUV
Chroma subsampling : 4:2:0
Bit depth : 8 bits
Scan type : Progressive
Bits/(Pixel*Frame) : 0.080
Stream size : 299 MiB (80%)
Writing library : x264 core 120 r2120 0c7dab9
Encoding settings : cabac=1 / ref=6 / deblock=1:1:1 / analyse=0x3:0x113 / me=umh / subme=8 / psy=1 / psy_rd=0.40:0.00 / mixed_ref=1 / me_range=16 / chroma_me=1 / trellis=1 / 8x8dct=1 / cqm=0 / deadzone=21,11 / fast_pskip=1 / chroma_qp_offset=-2 / threads=4 / sliced_threads=0 / nr=0 / decimate=1 / interlaced=0 / bluray_compat=0 / constrained_intra=0 / bframes=3 / b_pyramid=2 / b_adapt=2 / b_bias=0 / direct=3 / weightb=1 / open_gop=0 / weightp=2 / keyint=250 / keyint_min=23 / scenecut=40 / intra_refresh=0 / rc_lookahead=50 / rc=2pass / mbtree=1 / bitrate=1776 / ratetol=1.0 / qcomp=0.60 / qpmin=0 / qpmax=69 / qpstep=4 / cplxblur=20.0 / qblur=0.5 / vbv_maxrate=3552 / vbv_bufsize=8880 / nal_hrd=none / ip_ratio=1.40 / aq=1:0.60
Default : Yes
Forced : No

Audio #1
ID : 2
Format : AAC
Format/Info : Advanced Audio Codec
Format profile : LC
Codec ID : A_AAC
Duration : 23 min
Bit rate : 192 kb/s
Channel(s) : 2 channels
Channel positions : Front: L R
Sampling rate : 48.0 kHz
Frame rate : 46.875 FPS (1024 spf)
Compression mode : Lossy
Delay relative to video : 1 ms
Stream size : 32.3 MiB (9%)
Title : SHIZA Project
Language : Russian
Default : Yes
Forced : No

Audio #2
ID : 3
Format : AAC
Format/Info : Advanced Audio Codec
Format profile : LC
Codec ID : A_AAC
Duration : 23 min
Bit rate : 128 kb/s
Channel(s) : 2 channels
Channel positions : Front: L R
Sampling rate : 48.0 kHz
Frame rate : 46.875 FPS (1024 spf)
Compression mode : Lossy
Stream size : 21.7 MiB (6%)
Title : AniDub
Language : Russian
Default : No
Forced : No

Audio #3
ID : 4
Format : AAC
Format/Info : Advanced Audio Codec
Format profile : LC
Codec ID : A_AAC
Duration : 23 min
Bit rate : 128 kb/s
Channel(s) : 2 channels
Channel positions : Front: L R
Sampling rate : 44.1 kHz
Frame rate : 43.066 FPS (1024 spf)
Compression mode : Lossy
Stream size : 21.7 MiB (6%)
Title : Original
Language : Japanese
Default : No
Forced : No

Text #1
ID : 5
Format : ASS
Codec ID : S_TEXT/ASS
Codec ID/Info : Advanced Sub Station Alpha
Duration : 23 min
Bit rate : 137 b/s
Count of elements : 336
Compression mode : Lossless
Stream size : 23.8 KiB (0%)
Title : Полные субтитры - laci & Ryuji
Language : Russian
Default : Yes
Forced : No

Text #2
ID : 6
Format : ASS
Codec ID : S_TEXT/ASS
Codec ID/Info : Advanced Sub Station Alpha
Duration : 23 min
Bit rate : 183 b/s
Count of elements : 332
Compression mode : Lossless
Stream size : 31.7 KiB (0%)
Title : Полные субтитры - Crunchyroll
Language : Russian
Default : No
Forced : No
 
Не забывайте говорить Спасибо. Не уходите с раздачи!   
Торрент: Зарегистрирован [07 июл 2018, 19:53] Скачать торрент
Скачать торрент
[ Размер 25.02 КБ / Просмотров 4 ]
Статус:
Проверен
 
.torrent скачан: 0 раз
Хэш: 658c4b7f537fabf752982c2ec9a68b2424d23e27
Размер: 4.69 ГБ (5 039 029 091 байт)
Стать Автором раздачи
 
 
Раздал: 100 ГБ
Скачал: 0 байт
Ратио: Seed.
Сообщения: 103881
Зарегистрирован: 09 апр 2015, 22:31


  • Похожие торренты
    Ответы
    Просмотры
    Последнее сообщение

Вернуться в Аниме (Основной)

Ресурс не предоставляет электронные версии произведений, а занимается лишь коллекционированием и каталогизацией ссылок, присылаемых и публикуемых на форуме нашими читателями. Если вы являетесь правообладателем какого-либо представленного материала и не желаете чтобы ссылка на него находилась в нашем каталоге, свяжитесь с нами и мы незамедлительно удалим её. Файлы для обмена на трекере предоставлены пользователями сайта, и администрация не несёт ответственности за их содержание. Просьба не заливать файлы, защищенные авторскими правами, а также файлы нелегального содержания!
cron