Глинка (Лео Арнштам) [1946, биографический, музыкальный, DVB]

 
 Статистика раздачи 
Размер: 4.17 ГБ   |  Зарегистрирован: 07 июл 2018, 11:39   |   .torrent скачан: 0 раз
Сидеров: 1  [ 0 байт/сек ]     Личеров: 0  [ 0 байт/сек ]  
  

Глинка (Лео Арнштам) [1946, биографический, музыкальный, DVB]

Сообщение Nakazhu » 07 июл 2018, 14:53

Глинка
Жанр: биографический, музыкальный
Год выпуска: 1946
Продолжительность: 01:50:58
Режиссёр: Лео Арнштам
В ролях: Борис Чирков (Михаил Иванович Глинка), Саша Соболев (Глинка в детстве), Е. Кондратьева (мать), Лев Снежницкий (отец), Валентина Серова (жена), Клавдия Половикова (тёща), Василий Меркурьев (крепостной человек Ульяныч), К. Иванова (Анна Керн), Л. Липскерова (Катенька Керн), Михаил Названов (гусар Костя), Борис Ливанов (Николай I), Николай Свободин (барон Розен), Пётр Алейников (Пушкин), Михаил Державин-старший (Жуковский), Виктор Кольцов (Одоевский), Владимир Дружников (Рылеев), Владимир Владиславский (Виельгорский), Е. Калужский (старый сановник), Максим Михайлов (артист Петров) - см. последний скриншот, Е. Антонова (артистка Воробьёва), К. Рачевская (артистка в роли Антониды), Марк Перцовский (дирижёр Кавос); на обложке диска и в справочниках указаны также Александр Шатов, Михаил Яншин и Кира Головко.
Описание: Фильм посвящён основоположнику русской национальной академической музыки Михаилу Ивановичу Глинке (1804-1857).
Доп. информация: запись потока *.ts со спутника Экспресс АМ6, 53° в.д., ремукс в *.mkv программой VideoReDo.
Качество видео: DVB
Формат видео: MKV
Видео: MPEG2 Video, 720(1024)x576 (16:9), 25,000 кадров/сек, 5012 Кбит/сек
Аудио: MPEG Audio, 48,0 КГц, 256 Кбит/сек, 2 канала
Общее
Уникальный идентификатор : 325528293581266714265186305951610976164 (0xF4E6780597D6071A4F66A84CE41437A4)
Полное имя : D:\Torrent\ГЛИНКА (Kultura 53).mkv
Формат : Matroska
Версия формата : Version 2
Размер файла : 4,17 Гбайт
Продолжительность : 1 ч. 50 м.
Режим общего битрейта : Переменный
Общий поток : 5375 Кбит/сек
Программа кодирования : Lavf52.64.2
Библиотека кодирования : Lavf52.64.2
Видео
Идентификатор : 1
Формат : MPEG Video
Версия формата : Version 2
Профиль формата : Main@Main
Параметр BVOP формата : Да
Параметр матрицы формата : Выборочная
Параметр GOP формата : M=3, N=15
Структура изображения : Frame
Идентификатор кодека : V_MPEG2
Идентификатор кодека/Информация : MPEG 1 or 2 Video
Продолжительность : 1 ч. 50 м.
Вид битрейта : Переменный
Битрейт : 5012 Кбит/сек
Максимальный битрейт : 15,0 Мбит/сек
Ширина : 720 пикселей
Высота : 576 пикселей
Соотношение сторон : 16:9
Соотношение сторон в оригинале : 16:9
Режим частоты кадров : Постоянный
Частота кадров : 25,000 кадров/сек
Стандарт вещания : PAL
Цветовое пространство : YUV
Субдискретизация насыщенности : 4:2:0
Битовая глубина : 8 бит
Тип развёртки : Чересстрочная
Порядок развёртки : Верхнее поле первое
Метод сжатия : С потерями
Бит/(Пиксели*Кадры) : 0.483
Размер потока : 3,89 Гбайт (93%)
Default : Да
Forced : Нет
Аудио
Идентификатор : 2
Формат : MPEG Audio
Версия формата : Version 1
Профиль формата : Layer 2
Идентификатор кодека : A_MPEG/L2
Идентификатор кодека/Подсказка : MP2
Продолжительность : 1 ч. 50 м.
Вид битрейта : Постоянный
Битрейт : 256 Кбит/сек
Каналы : 2 канала
Частота : 48,0 КГц
Метод сжатия : С потерями
Задержка видео : 10 мс.
Размер потока : 203 Мбайт (5%)
Язык : English
Default : Да
Forced : Нет
 
Не забывайте говорить Спасибо. Не уходите с раздачи!   
Торрент: Зарегистрирован [07 июл 2018, 11:39] Скачать торрент
Скачать торрент
[ Размер 21.28 КБ / Просмотров 2 ]
Статус:
Проверен
 
.torrent скачан: 0 раз
Хэш: 8620784f34c14c6d995200753e1df2f11e28ec98
Размер: 4.17 ГБ (4 473 719 224 байт)
Стать Автором раздачи
 
 
Раздал: 0 байт
Скачал: 0 байт
Ратио: Inf.
Сообщения: 487468
Зарегистрирован: 17 апр 2014, 13:57


  • Похожие торренты
    Ответы
    Просмотры
    Последнее сообщение

Вернуться в Кино СССР, Советской России, Российской республики (1917-1991)

Ресурс не предоставляет электронные версии произведений, а занимается лишь коллекционированием и каталогизацией ссылок, присылаемых и публикуемых на форуме нашими читателями. Если вы являетесь правообладателем какого-либо представленного материала и не желаете чтобы ссылка на него находилась в нашем каталоге, свяжитесь с нами и мы незамедлительно удалим её. Файлы для обмена на трекере предоставлены пользователями сайта, и администрация не несёт ответственности за их содержание. Просьба не заливать файлы, защищенные авторскими правами, а также файлы нелегального содержания!
cron