Одинокий волк МакКуэйд / Lone Wolf McQuade (Стив Карвер / Steve Carver) [1983, США, боевик, BDRip] MVO (НТВ) + MVO (ОРТ)

 
 Статистика раздачи 
Размер: 1.6 ГБ   |  Зарегистрирован: 16 авг 2017, 08:47   |   .torrent скачан: 0 раз
Сидеров: 1  [ 0 байт/сек ]     Личеров: 0  [ 0 байт/сек ]  
  

Одинокий волк МакКуэйд / Lone Wolf McQuade (Стив Карвер / Steve Carver) [1983, США, боевик, BDRip] MVO (НТВ) + MVO (ОРТ)

Сообщение Nakazhu » 07 июл 2018, 13:35

Одинокий волк МакКуэйд / Lone Wolf McQuade
Страна: США
Жанр: боевик
Год выпуска: 1983
Продолжительность: 01:47:11
Перевод 1: Профессиональный (многоголосый закадровый) НТВ
Перевод 2: Профессиональный (многоголосый закадровый) ОРТ
Субтитры: нет
Оригинальная аудиодорожка: нет
Режиссер: Стив Карвер / Steve Carver
В ролях: Чак Норрис, Дэвид Кэрредин, Барбара Каррера, Леон Айзек Кеннеди, Роберт Бельтран, Л. К. Джонс
Описание: «Крутого» рейнджера Маккуэйда бандиты ненавидят за беспощадность, а шеф полиции - за его стиль работы «волка-одиночки». И в конце концов навязывает ему нового напарника — молодого мексиканца. Им противостоит банда контрабандистов оружием во главе с неким Роули — чемпионом по карате. В довершение всего, Маккуэйд влюбляется в женщину Роули Лолу, а бандиты похищают дочь рейнджера…
Доп. информация:
Видеоряд взят из этой раздачи http://rutracker.org/forum/viewtopic.php?t=4168977, за которую благодарим CaNчEs.
За звуковую дорожку с переводом телекомпании НТВ большое спасибо team_6strun.
За звуковую дорожку с переводом телеканала ОРТ большое спасибо pasific2013.
За синхронизацию обеих звуковых дорожек огромная благодарность JUSTKANT.
В переводе НТВ роли озвучивали: Юрий Петров, Герман Коваленко и Ирина Маликова.
В переводе ОРТ роли озвучивали: Александр Рахленко, Владимир Конкин и Ирина Маликова.
Обращаю внимание, что дорожка телекомпании НТВ в полном виде, без вставок (не путать с НТВ+) впервые выложена на трекере. Качество звука получше, чем в прежнем варианте. Сэмпл сделан из самого конца фильма с того интервала, на котором ранее перевод НТВ был утерян.
Сэмпл: https://www.sendspace.com/file/jo0lrg
Качество видео: BDRip
Формат видео: AVI
Видео: 704x384, 23.976 fps, MPEG-4 Visual, 1739 Kbps, XviD 65
Аудио 1: 48 KHz, AC3, 2 ch, 192 Kbps - MVO (НТВ)
Аудио 2: 48 KHz, AC3, 2 ch, 192 Kbps - MVO (ОРТ) - отдельно
General
Complete name : C:\Users\Сергей\Downloads\Одинокий волк Маккуэйд\Одинокий волк Маккуэйд.avi
Format : AVI
Format/Info : Audio Video Interleave
File size : 1.45 GiB
Duration : 1h 47mn
Overall bit rate : 1 940 Kbps
Movie name : Одинокий волк МакКуэйд / Lone Wolf McQuade (1983) BDRip
Writing application : VirtualDubMod 1.5.10.2 (build 2540/release)
Writing library : VirtualDubMod build 2540/release
Video
ID : 0
Format : MPEG-4 Visual
Format profile : Advanced Simple@L5
Format settings, BVOP : 1
Format settings, QPel : No
Format settings, GMC : No warppoints
Format settings, Matrix : Custom
Codec ID : XVID
Codec ID/Hint : XviD
Duration : 1h 47mn
Bit rate : 1 739 Kbps
Width : 704 pixels
Height : 384 pixels
Display aspect ratio : 1.85:1
Frame rate : 23.976 fps
Color space : YUV
Chroma subsampling : 4:2:0
Bit depth : 8 bits
Scan type : Progressive
Compression mode : Lossy
Bits/(Pixel*Frame) : 0.268
Stream size : 1.30 GiB (90%)
Writing library : XviD 65
Audio
ID : 1
Format : AC-3
Format/Info : Audio Coding 3
Mode extension : CM (complete main)
Format settings, Endianness : Big
Codec ID : 2000
Duration : 1h 47mn
Bit rate mode : Constant
Bit rate : 192 Kbps
Channel(s) : 2 channels
Channel positions : Front: L R
Sampling rate : 48.0 KHz
Bit depth : 16 bits
Compression mode : Lossy
Stream size : 147 MiB (10%)
Alignment : Split accross interleaves
Interleave, duration : 42 ms (1.00 video frame)
Interleave, preload duration : 500 ms
Релиз перезалит 07.07.2018г. в связи с добавлением полной дорожки с переводом НТВ. Звуковая дорожка с переводом ОРТ теперь выложена в раздаче отдельно.
 
Не забывайте говорить Спасибо. Не уходите с раздачи!   
Торрент: Зарегистрирован [16 авг 2017, 08:47] Скачать торрент
Скачать торрент
[ Размер 16.65 КБ / Просмотров 1 ]
Статус:
Проверен
 
.torrent скачан: 0 раз
Хэш: cef03d49f3234e7947918d9cc77ae3daa15c663b
Размер: 1.6 ГБ (1 714 297 344 байт)
Стать Автором раздачи
 
 
Раздал: 0 байт
Скачал: 0 байт
Ратио: Inf.
Сообщения: 487468
Зарегистрирован: 17 апр 2014, 13:57


  • Похожие торренты
    Ответы
    Просмотры
    Последнее сообщение

Вернуться в Зарубежные фильмы до 1990 года

Ресурс не предоставляет электронные версии произведений, а занимается лишь коллекционированием и каталогизацией ссылок, присылаемых и публикуемых на форуме нашими читателями. Если вы являетесь правообладателем какого-либо представленного материала и не желаете чтобы ссылка на него находилась в нашем каталоге, свяжитесь с нами и мы незамедлительно удалим её. Файлы для обмена на трекере предоставлены пользователями сайта, и администрация не несёт ответственности за их содержание. Просьба не заливать файлы, защищенные авторскими правами, а также файлы нелегального содержания!
cron