XVII церемония вручения премии Шансон года 2018 [2018, Shanson, Pop, UHDTV, 2160p]

 
 Статистика раздачи 
Размер: 22.13 ГБ   |  Зарегистрирован: 07 июл 2018, 07:34   |   .torrent скачан: 0 раз
Сидеров: 1  [ 0 байт/сек ]     Личеров: 0  [ 0 байт/сек ]  
  

XVII церемония вручения премии Шансон года 2018 [2018, Shanson, Pop, UHDTV, 2160p]

Сообщение Nakazhu » 07 июл 2018, 10:46

XVII церемония вручения премии Шансон года 2018
Жанр: Shanson, Pop
Продолжительность: 02:09:31
Год выпуска: 2018
Описание: В Государственном Кремлевском дворце в 17-й раз вручили премию «Радио Шансон».
В торжественной церемонии и праздничном концерте приняли участие
Треклист:
01. Михаил Шуфутинский и Анастасия Спиридонова - Питер-Москва
02. Михаил Шуфутинский - Она была совсем девчонкой
03. Ирина Круг - Я жду
04. Григорий Лепс - Аминь
06. Григорий Лепс - Я скучаю по вам по прежним
07. Татьяна Буланова - В доме, гле живёт моя печаль
08. Игорь Саруханов - Моя любовь по городу
09. Виктор Королёв - Хочу тебя я как весны
10. Рада Рай - Не суди меня, любимый
11. Александр Новиков - Шансонье
12. Александр Новиков - Девочка-огонь
13. Михаил Бублик - С неба белый снег
14. Наташа Королёва - Осень под ногами на подошве
15. Евгений Григорьев - Только так
16. Гарик Кричевский и Вероника Андреева - Правила против нас
17. Александр Буйнов - Ранняя зима
18. Ольга Сергеева - Жажда
19. Эмин и Александр Маршал - Отключи
20. Евгений Кемеровский - Ветер
21. Слава - Фраер
22. Сергей Любавин - Счастье в долгу у несчастья
23. На-На - Зинаида
24. Денис Харламов - От меня до тебя
25. Елена Воробей - Снова снег
26. Лесоповал - Ходите по девкам
37. Сергей Трофимов - Народ
28. Виктор Третьяков - Вам звонят от Бога
29. Земляне - Одиночество
30. Александр Розенбаум - Вечерняя застольная
31. Александр Розенбаум - Мы уезжаем
32. Таисия Повалий - Сердце - дом для любви
33. Стас Михайлов - Нас обрекла любовь на счастье
34. Стас Михайлов - Перепутаю даты
Доп. информация: Запись сделана с телеканала 1 ULTRA HD
Используемый видеоредактор TMPGEnc MPEG Smart Renderer 5
Качество: UHDTV
Разрешение видео/развертка: 2160p
Контейнер: MKV
Видео кодек: HEVC
Аудио кодек: AC3
Видео: HEVC; 3840x2160 (16:9); 50.000 fps; 23.5 Mb/s
Аудио: AC3, 6 channels, 48000Hz, 448 Кбит/сек (на самом деле 2 канала)
Чаптеры: есть
Код: Выделить всё
General
Unique ID                   : 43411963900194484476363033095581981586 (0x20A8D7123C54CC4CB5DFFBF1D64FDB92)
Complete name               : E:\Шансон года 2018.mkv
Format                      : Matroska
Format version              : Version 4 / Version 2
File size                   : 22.1 GiB
Duration                    : 2 h 9 min
Overall bit rate            : 24.5 Mb/s
Encoded date                : UTC 2018-07-07 06:02:25
Writing application         : TMPGEnc MPEG Smart Renderer 5 Version 5.0.15.21
Writing library             : TMPGEnc MPEG Smart Renderer 5 Version 5.0.15.21
Video
ID                          : 1
Format                      : HEVC
Format/Info                 : High Efficiency Video Coding
Format profile              : Main 10@L5.1@Main
Codec ID                    : V_MPEGH/ISO/HEVC
Duration                    : 2 h 9 min
Bit rate                    : 23.5 Mb/s
Width                       : 3 840 pixels
Height                      : 2 160 pixels
Display aspect ratio        : 16:9
Frame rate mode             : Constant
Frame rate                  : 50.000 FPS
Standard                    : Component
Color space                 : YUV
Chroma subsampling          : 4:2:0
Bit depth                   : 10 bits
Bits/(Pixel*Frame)          : 0.057
Stream size                 : 21.3 GiB (96%)
Default                     : Yes
Forced                      : No
Color range                 : Limited
Color primaries             : BT.709
Transfer characteristics    : BT.709
Matrix coefficients         : BT.709
Audio
ID                          : 2
Format                      : AC-3
Format/Info                 : Audio Coding 3
Codec ID                    : A_AC3
Duration                    : 2 h 9 min
Bit rate mode               : Constant
Bit rate                    : 448 kb/s
Channel(s)                  : 6 channels
Channel positions           : Front: L C R, Side: L R, LFE
Sampling rate               : 48.0 kHz
Frame rate                  : 31.250 FPS (1536 SPF)
Bit depth                   : 16 bits
Compression mode            : Lossy
Stream size                 : 415 MiB (2%)
Language                    : Russian
Service kind                : Complete Main
Default                     : Yes
Forced                      : No
Menu

 
Не забывайте говорить Спасибо. Не уходите с раздачи!   
Торрент: Зарегистрирован [07 июл 2018, 07:34] Скачать торрент
Скачать торрент
[ Размер 111.09 КБ / Просмотров 5 ]
Статус:
Проверен
 
.torrent скачан: 0 раз
Хэш: 7b924deee0be29b566e5d3a7feb4ac9fc8168719
Размер: 22.13 ГБ (23 759 531 541 байт)
Стать Автором раздачи
 
 
Раздал: 0 байт
Скачал: 0 байт
Ратио: Inf.
Сообщения: 487468
Зарегистрирован: 17 апр 2014, 13:57


  • Похожие торренты
    Ответы
    Просмотры
    Последнее сообщение

Вернуться в Отечественная Поп-музыка, Шансон, Eurodance, Disco (HD Video)

Ресурс не предоставляет электронные версии произведений, а занимается лишь коллекционированием и каталогизацией ссылок, присылаемых и публикуемых на форуме нашими читателями. Если вы являетесь правообладателем какого-либо представленного материала и не желаете чтобы ссылка на него находилась в нашем каталоге, свяжитесь с нами и мы незамедлительно удалим её. Файлы для обмена на трекере предоставлены пользователями сайта, и администрация не несёт ответственности за их содержание. Просьба не заливать файлы, защищенные авторскими правами, а также файлы нелегального содержания!
cron