XVII церемония вручения премии Шансон года 2018 [2018, Shanson, Pop, HDTV, 1080i]

 
 Статистика раздачи 
Размер: 10.91 ГБ   |  Зарегистрирован: 07 июл 2018, 06:25   |   .torrent скачан: 0 раз
Сидеров: 1  [ 0 байт/сек ]     Личеров: 0  [ 0 байт/сек ]  
  

XVII церемония вручения премии Шансон года 2018 [2018, Shanson, Pop, HDTV, 1080i]

Сообщение Nakazhu » 07 июл 2018, 09:28

XVII церемония вручения премии Шансон года 2018
Жанр: Shanson, Pop
Продолжительность: 02:10:03
Год выпуска: 2018
Описание: В Государственном Кремлевском дворце в 17-й раз вручили премию "Радио Шансон". В торжественной церемонии и праздничном концерте приняли участие Александр Розенбаум, Михаил Шуфутинский, Григорий Лепс, Стас Михайлов, Сергей Трофимов, Игорь Саруханов, Татьяна Буланова, Наташа Королева и многие другие.
Треклист:
1. Михаил Шуфутинский и Анастасия Спиридонова - Питер-Москва
2. Михаил Шуфутинский - Она была совсем девчонкой
3. Ирина Круг - Я жду
4. Григорий Лепс - Аминь
5. Григорий Лепс - Я скучаю по нам по прежним
6. Татьяна Буланова - В доме где живёт моя печаль
7. Игорь Саруханов - Моя любовь по городу
8. Виктор Королёв - Хочу тебя как весны
9. Рада рай - Не суди меня любимый
10. Александр Новиков - Шансонье
11. Александр Новиков - Девочка-огонь
12. Михаил Бублик - С неба белый снег
13. Наташа Королева - Осень под ногами на подошве
14. Евгений Григорьев - Только так
15. Вероника Андреева и Гарик Кричевский - Правила против нас
16. Александр Буйнов - Ранняя зима
17. Ольга Сергеева - Жажда
18. Emin и Александр Маршал - Отключи
19. Евгений Кемеровский - Ветер
20. Слава - Фраер
21. Сергей Любавин - Счастье в долгу у несчастья
22. НА-НА - Зинаида
23. Денис Харламов - От меня до тебя
24. Елена Воробей - Снова снег
25. Лесоповал - Ходите по девкам
26. Сергей Трофимов - Народ
27. Виктор Третьяков - Вам звонят от Бога
28. Земляне - Одиночество
29. Александр Розенбаум - Вечерняя застольная
30. Александр Розенбаум - Мы уезжаем
31. Таисия Повалий - Сердце - дом для любви
32. Стас Михайлов - Нас обрекла любовь на счастье
33. Стас Михайлов - Перепутаю даты
Качество: HDTV
Разрешение видео/развертка: 1080i
Контейнер: TS
Видео кодек: H.264
Аудио кодек: AC3
Видео: H264; 1920x1080 (16:9); 25.000 fps; ~11.0 Mb/s
Аудио: AC3, 6 channels, 48000Hz, 384 Кбит/сек
Код: Выделить всё
General
ID                             : 1 (0x1)
Complete name                  : L:\1_ИСХОЛНИКИ\Шансон года 2018.07.06.ts
Format                         : MPEG-TS
File size                      : 10.9 GiB
Duration                       : 2 h 10 min
Overall bit rate mode          : Variable
Overall bit rate               : 12.0 Mb/s
Video
ID                             : 205 (0xCD)
Menu ID                        : 20105 (0x4E89)
Format                         : AVC
Format/Info                    : Advanced Video Codec
Format profile                 : High@L4
Format settings                : CABAC / 4 Ref Frames
Format settings, CABAC         : Yes
Format settings, RefFrames     : 4 frames
Format settings, GOP           : M=4, N=28
Codec ID                       : 27
Duration                       : 2 h 10 min
Bit rate                       : 11.0 Mb/s
Width                          : 1 920 pixels
Height                         : 1 080 pixels
Display aspect ratio           : 16:9
Frame rate                     : 25.000 FPS
Standard                       : Component
Color space                    : YUV
Chroma subsampling             : 4:2:0
Bit depth                      : 8 bits
Scan type                      : Interlaced
Scan type, store method        : Separated fields
Scan order                     : Top Field First
Bits/(Pixel*Frame)             : 0.213
Stream size                    : 10.0 GiB (92%)
Color range                    : Limited
Color primaries                : BT.709
Transfer characteristics       : BT.709
Matrix coefficients            : BT.709
Audio
ID                             : 305 (0x131)
Menu ID                        : 20105 (0x4E89)
Format                         : AC-3
Format/Info                    : Audio Coding 3
Format settings, Endianness    : Big
Codec ID                       : 6
Duration                       : 2 h 10 min
Bit rate mode                  : Constant
Bit rate                       : 384 kb/s
Channel(s)                     : 6 channels
Channel positions              : Front: L C R, Side: L R, LFE
Sampling rate                  : 48.0 kHz
Frame rate                     : 31.250 FPS (1536 SPF)
Bit depth                      : 16 bits
Compression mode               : Lossy
Stream size                    : 357 MiB (3%)
Language                       : Russian
Service kind                   : Complete Main
2
 
Не забывайте говорить Спасибо. Не уходите с раздачи!   
Торрент: Зарегистрирован [07 июл 2018, 06:25] Скачать торрент
Скачать торрент
[ Размер 27.74 КБ / Просмотров 4 ]
Статус:
Проверен
 
.torrent скачан: 0 раз
Хэш: cad3c3321ad52551af5acefe032e831bf26ad1f7
Размер: 10.91 ГБ (11 711 731 660 байт)
Стать Автором раздачи
 
 
Раздал: 0 байт
Скачал: 0 байт
Ратио: Inf.
Сообщения: 487468
Зарегистрирован: 17 апр 2014, 13:57


  • Похожие торренты
    Ответы
    Просмотры
    Последнее сообщение

Вернуться в Отечественная Поп-музыка, Шансон, Eurodance, Disco (HD Video)

Ресурс не предоставляет электронные версии произведений, а занимается лишь коллекционированием и каталогизацией ссылок, присылаемых и публикуемых на форуме нашими читателями. Если вы являетесь правообладателем какого-либо представленного материала и не желаете чтобы ссылка на него находилась в нашем каталоге, свяжитесь с нами и мы незамедлительно удалим её. Файлы для обмена на трекере предоставлены пользователями сайта, и администрация не несёт ответственности за их содержание. Просьба не заливать файлы, защищенные авторскими правами, а также файлы нелегального содержания!
cron