Особенности национальной политики (2003) DVDRip-AVC от KORSAR

 
 Статистика раздачи 
Размер: 2.45 ГБ   |  Зарегистрирован: 07 июл 2018, 00:50   |   .torrent скачан: 0 раз
Сидеров: 1  [ 0 байт/сек ]     Личеров: 0  [ 0 байт/сек ]  
  

Особенности национальной политики (2003) DVDRip-AVC от KORSAR

Сообщение graf_t » 07 июл 2018, 02:25

Особенности национальной политики


Страна: Россия
Жанр: Комедия
Год выпуска: 2003
Продолжительность: 01:22:35
Перевод: Не требуется
Режиссер: Юрий Конопкин, Дмитрий Месхиев
В ролях: Алексей Булдаков, Семён Стругачев, Виктор Бычков, Сергей Русскин, Сергей Гусинский, Нина Усатова, Игорь Копылов, Юрий Кузнецов, Михаил Пореченков, Андрей Зибров...

Описание: Генерал Иволгин баллотируется на ответственный пост. Высокие рейтинги неизвестно откуда взявшегося наглого соперника приводят в замешательство конкурентов. Разгадать секрет популярности генерала пытаются коммунисты, бандиты, бизнесмены, «агент влияния» Инна Усман и даже главный фээсбэшник страны Виктор Сергеевич, шаг за шагом доказывая в своем расследовании, что «политика — дело грязное»…



Кодек: х264
Качество: DVDRip-AVC
Видео: MPEG-4 AVC, 676х568@961x568, 25 fps, 3350 Кбит/с
Аудио: АС3, 6 сh, 448 Кбит/с, АС3, 2 сh, 448 Кбит/с
Субтитры: Нет
Главы: Есть


x264 [info]: frame I:697 Avg QP:17.74 size: 72745
x264 [info]: frame P:27497 Avg QP:19.51 size: 35716
x264 [info]: frame B:95682 Avg QP:21.41 size: 10889

Общее
Уникальный идентификатор : 237643762214258540096505406273771462343 (0xB2C8861616646E7C921E72AB1866DEC7)
Полное имя : I:Наше современное киноОсобенности национальной политики 2003_DVDRip-AVC_KORSAR.mkv
Формат : Matroska
Версия формата : Version 2
Размер файла : 2,45 Гбайт
Продолжительность : 1 ч. 22 м.
Общий поток : 4248 Кбит/сек
Название фильма : mister.hats
Дата кодирования : UTC 2018-06-23 17:55:20
Программа кодирования : mkvmerge v5.8.0 ('No Sleep / Pillow') built on Sep 2 2012 15:37:04
Библиотека кодирования : libebml v1.2.3 + libmatroska v1.3.0

Видео
Идентификатор : 1
Формат : AVC
Формат/Информация : Advanced Video Codec
Профиль формата : High@L4.1
Настройки формата : CABAC / 14 Ref Frames
Параметр CABAC формата : Да
Параметр RefFrames формата : 14 кадров
Идентификатор кодека : V_MPEG4/ISO/AVC
Продолжительность : 1 ч. 22 м.
Битрейт : 3350 Кбит/сек
Ширина : 676 пикселей
Высота : 568 пикселей
Соотношение сторон : 5:3
Соотношение сторон в оригинале : 5:3
Режим частоты кадров : Постоянный
Частота кадров : 25,000 кадров/сек
Цветовое пространство : YUV
Субдискретизация насыщенности : 4:2:0
Битовая глубина : 8 бит
Тип развёртки : Прогрессивная
Бит/(Пиксели*Кадры) : 0.349
Размер потока : 1,88 Гбайт (77%)
Библиотека кодирования : x264 core 152 r2851kMod ba24899
Настройки программы : cabac=1 / ref=14 / deblock=1:-2:-2 / analyse=0x3:0x133 / me=umh / subme=11 / psy=1 / fade_compensate=0.00 / psy_rd=1.05:0.15 / mixed_ref=1 / me_range=48 / chroma_me=1 / trellis=2 / 8x8dct=1 / cqm=0 / deadzone=21,11 / fast_pskip=0 / chroma_qp_offset=-3 / threads=12 / lookahead_threads=3 / sliced_threads=0 / nr=0 / decimate=0 / interlaced=0 / bluray_compat=0 / constrained_intra=0 / bframes=10 / b_pyramid=2 / b_adapt=2 / b_bias=0 / direct=3 / weightb=1 / open_gop=0 / weightp=2 / keyint=250 / keyint_min=25 / scenecut=40 / intra_refresh=0 / rc_lookahead=40 / rc=2pass / mbtree=0 / bitrate=3350 / ratetol=1.0 / qcomp=0.60 / qpmin=0 / qpmax=39 / qpstep=4 / cplxblur=20.0 / qblur=0.5 / vbv_maxrate=50000 / vbv_bufsize=62500 / nal_hrd=none / filler=0 / ip_ratio=1.15 / pb_ratio=1.30 / aq=1:1.00
Язык : English
Default : Да
Forced : Нет
Цветовой диапазон : Limited
Основные цвета : BT.601 PAL
Характеристики трансфера : BT.470 System B, BT.470 System G
Коэффициенты матрицы : BT.470 System B, BT.470 System G

Аудио #1
Идентификатор : 2
Формат : AC-3
Формат/Информация : Audio Coding 3
Параметр Endianness формата : Big
Идентификатор кодека : A_AC3
Продолжительность : 1 ч. 22 м.
Вид битрейта : Постоянный
Битрейт : 448 Кбит/сек
Каналы : 6 каналов
Расположение каналов : Front: L C R, Side: L R, LFE
Частота : 48,0 КГц
Частота кадров : 31,250 кадров/сек (1536 SPF)
Битовая глубина : 16 бит
Метод сжатия : С потерями
Размер потока : 265 Мбайт (11%)
Язык : Russian
Default : Да
Forced : Нет

Аудио #2
Идентификатор : 3
Формат : AC-3
Формат/Информация : Audio Coding 3
Параметр Endianness формата : Big
Идентификатор кодека : A_AC3
Продолжительность : 1 ч. 22 м.
Вид битрейта : Постоянный
Битрейт : 448 Кбит/сек
Каналы : 2 канала
Расположение каналов : Front: L R
Частота : 48,0 КГц
Частота кадров : 31,250 кадров/сек (1536 SPF)
Битовая глубина : 16 бит
Метод сжатия : С потерями
Задержка видео : 1 с. 23 мс.
Размер потока : 265 Мбайт (11%)
Язык : Russian
Default : Нет
Forced : Нет

Меню
00:00:00.000 : en:Chapter 1
00:12:11.520 : en:Chapter 2
00:21:24.000 : en:Chapter 3
00:26:52.320 : en:Chapter 4
00:36:27.840 : en:Chapter 5
00:47:47.520 : en:Chapter 6
00:51:00.480 : en:Chapter 7
01:01:07.680 : en:Chapter 8
01:12:39.840 : en:Chapter 9
01:18:05.760 : en:Chapter 10




 
Не забывайте говорить Спасибо. Не уходите с раздачи!   
Торрент: Зарегистрирован [07 июл 2018, 00:50] Скачать торрент
Скачать торрент
[ Размер 13.23 КБ / Просмотров 2 ]
Статус:
Проверен
 
.torrent скачан: 0 раз
Хэш: 3a3a46bb500a1bec6b3224dbd21b903e497d4c0f
Размер: 2.45 ГБ (2 630 884 224 байт)
Стать Автором раздачи
 
 
Раздал: 100 ГБ
Скачал: 0 байт
Ратио: Seed.
Сообщения: 58526
Зарегистрирован: 31 мар 2015, 18:04


  • Похожие торренты
    Ответы
    Просмотры
    Последнее сообщение

Вернуться в Отечественные фильмы 2001-2005 года

Ресурс не предоставляет электронные версии произведений, а занимается лишь коллекционированием и каталогизацией ссылок, присылаемых и публикуемых на форуме нашими читателями. Если вы являетесь правообладателем какого-либо представленного материала и не желаете чтобы ссылка на него находилась в нашем каталоге, свяжитесь с нами и мы незамедлительно удалим её. Файлы для обмена на трекере предоставлены пользователями сайта, и администрация не несёт ответственности за их содержание. Просьба не заливать файлы, защищенные авторскими правами, а также файлы нелегального содержания!
cron