Озеро героев (Анна Протоковило) [2017, комедия, приключения, WEB-DLRip]

 
 Статистика раздачи 
Размер: 1.09 ГБ   |  Зарегистрирован: 06 июл 2018, 17:46   |   .torrent скачан: 0 раз
Сидеров: 1  [ 0 байт/сек ]     Личеров: 0  [ 0 байт/сек ]  
  

Озеро героев (Анна Протоковило) [2017, комедия, приключения, WEB-DLRip]

Сообщение Nakazhu » 06 июл 2018, 20:50

Озеро героев
Жанр: комедия, приключения
Год выпуска: 2017
Продолжительность: 01:10:52
Режиссёр: Анна Протоковило
В ролях: Любава Яровая, Александр Чусовитин, Никита Бурячек, Олег Майборода, Нелли Гатина, Никита Краснояров, Дмитрий Востриков, Николай Кулебякин, Вадим Карионов, Олег Тупица

Описание: Члены молодежной организации «Экологи Сибири» узнают, что на озере Байкал, в заповедном месте планируется строительство крупного отеля. Лидер экологов Егор призывает любой ценой помешать этим планам и встать на защиту природы. Ребята едут на Байкал и разбивают палаточный лагерь прямо на месте строительства. Начинается противостояние юных экологов и строительной корпорации, обе стороны настроены решительно. Ситуация накаляется еще более, когда выясняется, что подруга Егора — дочь директора строительной корпорации. Строителям нужно начинать работы, и они решаются на крайние меры…
Кинопоиск
Sample
Качество видео: WEB-DLRip
Формат видео: AVI
Видео: 720x320 (2.25:1), 25 fps, XviD build 73 ~2000 kbps avg, 0.35 bit/pixel
Аудио: 48 kHz, AC3 Dolby Digital, 2/0 (L,R) ch, ~192 kbps
General
Complete name : D:\Озеро героев 2017 WEB-DLRip.avi
Format : AVI
Format/Info : Audio Video Interleave
File size : 1.09 GiB
Duration : 1 h 10 min
Overall bit rate : 2 203 kb/s
Writing application : VirtualDubMod 1.5.10.3 | www.virtualdub-fr.org || (build 2550/release)
Writing library : VirtualDubMod build 2550/release
Video
ID : 0
Format : MPEG-4 Visual
Format profile : Advanced Simple@L5
Format settings : BVOP1
Format settings, BVOP : 1
Format settings, QPel : No
Format settings, GMC : No warppoints
Format settings, Matrix : Default (MPEG)
Codec ID : XVID
Codec ID/Hint : XviD
Duration : 1 h 10 min
Bit rate : 2 001 kb/s
Width : 720 pixels
Height : 320 pixels
Display aspect ratio : 2.25:1
Frame rate : 25.000 FPS
Color space : YUV
Chroma subsampling : 4:2:0
Bit depth : 8 bits
Scan type : Progressive
Compression mode : Lossy
Bits/(Pixel*Frame) : 0.347
Stream size : 1 014 MiB (91%)
Writing library : XviD 73
Audio
ID : 1
Format : AC-3
Format/Info : Audio Coding 3
Codec ID : 2000
Duration : 1 h 10 min
Bit rate mode : Constant
Bit rate : 192 kb/s
Channel(s) : 2 channels
Channel positions : Front: L R
Sampling rate : 48.0 kHz
Frame rate : 31.250 FPS (1536 SPF)
Bit depth : 16 bits
Compression mode : Lossy
Stream size : 97.3 MiB (9%)
Alignment : Split accross interleaves
Interleave, duration : 40 ms (1.00 video frame)
Interleave, preload duratio : 500 ms
Service kind : Complete Main


 
Не забывайте говорить Спасибо. Не уходите с раздачи!   
Торрент: Зарегистрирован [06 июл 2018, 17:46] Скачать торрент
Скачать торрент
[ Размер 11.37 КБ / Просмотров 1 ]
Статус:
Проверен
 
.torrent скачан: 0 раз
Хэш: 3c4ab80e3702c182c3de5e50a1acbf3c17cb417b
Размер: 1.09 ГБ (1 170 733 056 байт)
Стать Автором раздачи
 
 
Раздал: 0 байт
Скачал: 0 байт
Ратио: Inf.
Сообщения: 487468
Зарегистрирован: 17 апр 2014, 13:57


  • Похожие торренты
    Ответы
    Просмотры
    Последнее сообщение

Вернуться в Отечественное кино

Ресурс не предоставляет электронные версии произведений, а занимается лишь коллекционированием и каталогизацией ссылок, присылаемых и публикуемых на форуме нашими читателями. Если вы являетесь правообладателем какого-либо представленного материала и не желаете чтобы ссылка на него находилась в нашем каталоге, свяжитесь с нами и мы незамедлительно удалим её. Файлы для обмена на трекере предоставлены пользователями сайта, и администрация не несёт ответственности за их содержание. Просьба не заливать файлы, защищенные авторскими правами, а также файлы нелегального содержания!
cron