Остров исправления (Анна Протоковило) [2017, комедия, WEB-DLRip]

 
 Статистика раздачи 
Размер: 1.46 ГБ   |  Зарегистрирован: 06 июл 2018, 16:49   |   .torrent скачан: 0 раз
Сидеров: 1  [ 0 байт/сек ]     Личеров: 0  [ 0 байт/сек ]  
  

Остров исправления (Анна Протоковило) [2017, комедия, WEB-DLRip]

Сообщение Nakazhu » 06 июл 2018, 20:02

Остров исправления
Жанр: комедия
Год выпуска: 2017
Продолжительность: 01:27:53
Режиссёр: Анна Протоковило
В ролях: Алексей Маклаков, Сергей Новиков, Олег Майборода, Дмитрий Востриков, Нелли Гатина, Никита Краснояров, Владимир Худоян, Анастасия Алехина, Кристина Холдеева

Описание: Выпускной — это самое светлое и трогательное событие. Так думают все, но только не наши герои. Самые продвинутые в 9 «А» — ди-джей Стас, блогерша Инесса-принцесса и их друзья считают, что на этом празднике должно быть намного веселей. Вместо грустной песни про школу, они включают «хайповый видос», снятый ими про директора школы, и срывают выпускной. Родители «активистов» принимают жесткое решение: отправить провинившихся на лето в деревню работать на фермерском хозяйстве. Мало того, что деревня расположена на острове посреди Оби, откуда так просто не сбежишь, еще и фермер Степаныч, которому им предстоит помогать — бывший военный. Это точно будут незабываемые каникулы…
Кинопоиск
Sample
Качество видео: WEB-DLRip
Формат видео: AVI
Видео: 720x320 (2.25:1), 25 fps, XviD build 73 ~2175 kbps avg, 0.38 bit/pixel
Аудио: 48 kHz, AC3 Dolby Digital, 2/0 (L,R) ch, ~192 kbps
General
Complete name : D:\Остров исправления 2017 WEB-DLRip.avi
Format : AVI
Format/Info : Audio Video Interleave
File size : 1.46 GiB
Duration : 1 h 27 min
Overall bit rate : 2 378 kb/s
Writing application : VirtualDubMod 1.5.10.3 | www.virtualdub-fr.org || (build 2550/release)
Writing library : VirtualDubMod build 2550/release
Video
ID : 0
Format : MPEG-4 Visual
Format profile : Advanced Simple@L5
Format settings : BVOP1
Format settings, BVOP : 1
Format settings, QPel : No
Format settings, GMC : No warppoints
Format settings, Matrix : Default (MPEG)
Codec ID : XVID
Codec ID/Hint : XviD
Duration : 1 h 27 min
Bit rate : 2 176 kb/s
Width : 720 pixels
Height : 320 pixels
Display aspect ratio : 2.25:1
Frame rate : 25.000 FPS
Color space : YUV
Chroma subsampling : 4:2:0
Bit depth : 8 bits
Scan type : Progressive
Compression mode : Lossy
Bits/(Pixel*Frame) : 0.378
Stream size : 1.34 GiB (92%)
Writing library : XviD 73
Audio
ID : 1
Format : AC-3
Format/Info : Audio Coding 3
Codec ID : 2000
Duration : 1 h 27 min
Bit rate mode : Constant
Bit rate : 192 kb/s
Channel(s) : 2 channels
Channel positions : Front: L R
Sampling rate : 48.0 kHz
Frame rate : 31.250 FPS (1536 SPF)
Bit depth : 16 bits
Compression mode : Lossy
Stream size : 121 MiB (8%)
Alignment : Split accross interleaves
Interleave, duration : 40 ms (1.00 video frame)
Interleave, preload duratio : 500 ms
Service kind : Complete Main


 
Не забывайте говорить Спасибо. Не уходите с раздачи!   
Торрент: Зарегистрирован [06 июл 2018, 16:49] Для скачивания .torrent
необходима регистрация
Или скачать с помощью
MediaGet
Статус:
Проверен
 
.torrent скачан: 0 раз
Хэш: f1966c9a17b09cf8e43ece1a977bda1478b015ab
Размер: 1.46 ГБ (1 567 266 816 байт)
Стать Автором раздачи
 
 
Раздал: 0 байт
Скачал: 0 байт
Ратио: Inf.
Сообщения: 487468
Зарегистрирован: 17 апр 2014, 13:57


  • Похожие торренты
    Ответы
    Просмотры
    Последнее сообщение

Вернуться в Отечественное кино

Ресурс не предоставляет электронные версии произведений, а занимается лишь коллекционированием и каталогизацией ссылок, присылаемых и публикуемых на форуме нашими читателями. Если вы являетесь правообладателем какого-либо представленного материала и не желаете чтобы ссылка на него находилась в нашем каталоге, свяжитесь с нами и мы незамедлительно удалим её. Файлы для обмена на трекере предоставлены пользователями сайта, и администрация не несёт ответственности за их содержание. Просьба не заливать файлы, защищенные авторскими правами, а также файлы нелегального содержания!
cron