Моя жизнь (Алексей Луканев) [2018, драма, мелодрама, WEB-DLRip]

 
 Статистика раздачи 
Размер: 1.46 ГБ   |  Зарегистрирован: 06 июл 2018, 15:21   |   .torrent скачан: 0 раз
Сидеров: 1  [ 0 байт/сек ]     Личеров: 0  [ 0 байт/сек ]  
  

Моя жизнь (Алексей Луканев) [2018, драма, мелодрама, WEB-DLRip]

Сообщение Nakazhu » 06 июл 2018, 18:29

Моя жизнь
Жанр: драма, мелодрама
Год выпуска: 2018
Продолжительность: 01:34:45
Режиссёр: Алексей Луканев
В ролях: Алёна Бабенко, Павел Трубинер, Макар Запорожский, Анастасия Панина, Дмитрий Белоцерковский, Николай Чиндяйкин, Арсений Бурдонов, Диана Енакаева, Михаил Калинин, Егор Леонтьев

Описание: С самого детства главный герой влюбляется в футбол и мечтает стать великим футболистом, чтобы сыграть свой важнейший матч. Следуя своей мечте, ему приходится отказаться от любимой девушки и выбрать путь футболиста. И вот, когда остается один шаг до заветной мечты, судьба распоряжается по-другому. Мир перестает существовать, ведь он не только теряет возможность осуществить свою мечту, но и теряет своих родных, любимых людей.Как не сломаться, следовать своей мечте и вернуть свою любимую? Или она так и не смирится с его выбором стать футболистом?
Кинопоиск
Sample
Качество видео: WEB-DLRip
Формат видео: AVI
Видео: 720x304 (2.37:1), 25 fps, XviD build 73 ~1815 kbps avg, 0.33 bit/pixel
Аудио: 48 kHz, AC3 Dolby Digital, 3/2 (L,C,R,l,r) + LFE ch, ~384 kbps
General
Complete name : D:\Моя жизнь 2018 WEB-DLRip.avi
Format : AVI
Format/Info : Audio Video Interleave
File size : 1.46 GiB
Duration : 1 h 34 min
Overall bit rate : 2 209 kb/s
Writing application : VirtualDubMod 1.5.10.3 | www.virtualdub-fr.org || (build 2550/release)
Writing library : VirtualDubMod build 2550/release
Video
ID : 0
Format : MPEG-4 Visual
Format profile : Advanced Simple@L5
Format settings : BVOP1
Format settings, BVOP : 1
Format settings, QPel : No
Format settings, GMC : No warppoints
Format settings, Matrix : Default (MPEG)
Codec ID : XVID
Codec ID/Hint : XviD
Duration : 1 h 34 min
Bit rate : 1 815 kb/s
Width : 720 pixels
Height : 304 pixels
Display aspect ratio : 2.35:1
Frame rate : 25.000 FPS
Color space : YUV
Chroma subsampling : 4:2:0
Bit depth : 8 bits
Scan type : Progressive
Compression mode : Lossy
Bits/(Pixel*Frame) : 0.332
Stream size : 1.20 GiB (82%)
Writing library : XviD 73
Audio
ID : 1
Format : AC-3
Format/Info : Audio Coding 3
Codec ID : 2000
Duration : 1 h 34 min
Bit rate mode : Constant
Bit rate : 384 kb/s
Channel(s) : 6 channels
Channel positions : Front: L C R, Side: L R, LFE
Sampling rate : 48.0 kHz
Frame rate : 31.250 FPS (1536 SPF)
Bit depth : 16 bits
Compression mode : Lossy
Stream size : 260 MiB (17%)
Alignment : Split accross interleaves
Interleave, duration : 40 ms (1.00 video frame)
Interleave, preload duratio : 500 ms
Service kind : Complete Main


 
Не забывайте говорить Спасибо. Не уходите с раздачи!   
Торрент: Зарегистрирован [06 июл 2018, 15:21] Для скачивания .torrent
необходима регистрация
Или скачать с помощью
MediaGet
Статус:
Проверен
 
.torrent скачан: 0 раз
Хэш: 5f328aeb69f04fb515af77cf2a3b04e04a3fd632
Размер: 1.46 ГБ (1 569 826 816 байт)
Стать Автором раздачи
 
 
Раздал: 0 байт
Скачал: 0 байт
Ратио: Inf.
Сообщения: 487468
Зарегистрирован: 17 апр 2014, 13:57


  • Похожие торренты
    Ответы
    Просмотры
    Последнее сообщение

Вернуться в Отечественное кино

Ресурс не предоставляет электронные версии произведений, а занимается лишь коллекционированием и каталогизацией ссылок, присылаемых и публикуемых на форуме нашими читателями. Если вы являетесь правообладателем какого-либо представленного материала и не желаете чтобы ссылка на него находилась в нашем каталоге, свяжитесь с нами и мы незамедлительно удалим её. Файлы для обмена на трекере предоставлены пользователями сайта, и администрация не несёт ответственности за их содержание. Просьба не заливать файлы, защищенные авторскими правами, а также файлы нелегального содержания!
cron