Моя жизнь (2018) WEB-DLRip от R.G.Resident | iTunes

 
 Статистика раздачи 
Размер: 1.46 ГБ   |  Зарегистрирован: 06 июл 2018, 17:43   |   .torrent скачан: 0 раз
Сидеров: 1  [ 0 байт/сек ]     Личеров: 0  [ 0 байт/сек ]  
  

Моя жизнь (2018) WEB-DLRip от R.G.Resident | iTunes

Сообщение graf_t » 06 июл 2018, 18:28

Информация о фильме
Название: Моя жизнь
Год выпуска: 2018
Страна: Россия
Жанр: мелодрама

Перевод: Оригинал (русский) [iTunes]
Продолжительность: 01:34:44

Режиссер: Алексей Луканев
В ролях: Алёна Бабенко, Павел Трубинер, Макар Запорожский, Анастасия Панина, Дмитрий Белоцерковский, Николай Чиндяйкин, Арсений Бурдонов, Диана Енакаева, Михаил Калинин, Егор Леонтьев, Кирилл Белобородов, Дмитрий Бедерин


Описание:
С самого детства главный герой влюбляется в футбол и мечтает стать великим футболистом, чтобы сыграть свой важнейший матч. Следуя своей мечте, ему приходится отказаться от любимой девушки и выбрать путь футболиста. И вот, когда остается один шаг до заветной мечты, судьба распоряжается по-другому. Мир перестает существовать, ведь он не только теряет возможность осуществить свою мечту, но и теряет своих родных, любимых людей.

Рейтинг:


Качество: WEB-DLRip
Формат: AVI
Видео: XviD, 720x304 (2.35:1), 1811 kbps, 25 fps, 0,331 bpp
Аудио: AC3 / 5.1 / 48 kHz / 384 kbps /
Сэмпл


Релиз от:


General
Complete name : F:Moya.Zhizn.2018.WEB-DLRip.R.G.Resident.avi
Format : AVI
Format/Info : Audio Video Interleave
File size : 1.46 GiB
Duration : 1 h 34 min
Overall bit rate : 2 205 kb/s
Writing application : VirtualDubModRus 1.5.10.2 (build 2542/release)
Writing library : VirtualDubMod build 2542/release

Video
ID : 0
Format : MPEG-4 Visual
Format profile : Advanced Simple@L5
Format settings, BVOP : 1
Format settings, QPel : No
Format settings, GMC : No warppoints
Format settings, Matrix : Custom
Codec ID : XVID
Codec ID/Hint : XviD
Duration : 1 h 34 min
Bit rate : 1 811 kb/s
Width : 720 pixels
Height : 304 pixels
Display aspect ratio : 2.35:1
Frame rate : 25.000 FPS
Color space : YUV
Chroma subsampling : 4:2:0
Bit depth : 8 bits
Scan type : Progressive
Compression mode : Lossy
Bits/(Pixel*Frame) : 0.331
Stream size : 1.20 GiB (82%)
Writing library : XviD 73

Audio
ID : 1
Format : AC-3
Format/Info : Audio Coding 3
Mode extension : CM (complete main)
Format settings, Endianness : Big
Codec ID : 2000
Duration : 1 h 34 min
Bit rate mode : Constant
Bit rate : 384 kb/s
Channel(s) : 6 channels
Channel positions : Front: L C R, Side: L R, LFE
Sampling rate : 48.0 kHz
Frame rate : 31.250 FPS (1536 spf)
Compression mode : Lossy
Stream size : 260 MiB (17%)
Alignment : Split accross interleaves
Interleave, duration : 40 ms (1.00 video frame)
Interleave, preload duration : 500 ms


 
Не забывайте говорить Спасибо. Не уходите с раздачи!   
Торрент: Зарегистрирован [06 июл 2018, 17:43] Для скачивания .torrent
необходима регистрация
Или скачать с помощью
MediaGet
Статус:
Проверен
 
.torrent скачан: 0 раз
Хэш: e14c01560619edd6b001f9d6b2e6576d7f46c855
Размер: 1.46 ГБ (1 566 971 904 байт)
Стать Автором раздачи
 
 
Раздал: 100 ГБ
Скачал: 0 байт
Ратио: Seed.
Сообщения: 55029
Зарегистрирован: 31 мар 2015, 18:04


  • Похожие торренты
    Ответы
    Просмотры
    Последнее сообщение

Вернуться в Отечественное кино

Ресурс не предоставляет электронные версии произведений, а занимается лишь коллекционированием и каталогизацией ссылок, присылаемых и публикуемых на форуме нашими читателями. Если вы являетесь правообладателем какого-либо представленного материала и не желаете чтобы ссылка на него находилась в нашем каталоге, свяжитесь с нами и мы незамедлительно удалим её. Файлы для обмена на трекере предоставлены пользователями сайта, и администрация не несёт ответственности за их содержание. Просьба не заливать файлы, защищенные авторскими правами, а также файлы нелегального содержания!
cron