Пусть светит (1960) SATRip от New-Team

 
 Статистика раздачи 
Размер: 373.11 МБ   |  Зарегистрирован: 06 июл 2018, 11:29   |   .torrent скачан: 0 раз
Сидеров: 1  [ 0 байт/сек ]     Личеров: 0  [ 0 байт/сек ]  
  

Пусть светит (1960) SATRip от New-Team

Сообщение graf_t » 06 июл 2018, 11:57

Страна: СССР
Производство: Центральная студия телевидения

Жанр: короткометражка, драма, военный
Год выпуска: 1960
Продолжительность: 00:35:06

Перевод: Не требуется
Cубтитры: нет
Оригинальная аудиодорожка: русский

Режиссер: Евгений Карелов

В ролях:
Леонид Харитонов, Ольга Наровчатова, Евгения Мельникова, Екатерина Мазурова, Николай Новлянский, Михаил Ульянов, Гарри Дунц, Владимир Селезнёв (III), Павел Шальнов, Ксана Сивова, Дмитрий Матвеев...
Об актёрах подробней

Описание:
По одноименной повести А.Гайдара.
К населённому пункту приближаются белые войска. Небольшой гарнизон красноармейцев решает эвакуировать мирных жителей и раненого бойца в безопасное место. Это ответственное дело поручается молодому комсомольцу Ефимке. Подводы выезжают из села и едут по лесным дорогам, но сбиваются с пути. Ночью на привале Ефимка, его мать и Верка говорят о будущем, о доме в сорок этажей с башней, звездой и прожектором - пусть светит!.. Ефимка решает пробраться к отряду красноармейцев. В лесу он наталкивается на белых, в перестрелке убивает белого офицера. И когда на беженцев нападают белые, появляется красный отряд. Его привёл Ефимка.





Исходник: DVB
Качество видео: SATRip
Формат видео: AVI

Видео: 704x528 (4:3), 25,000 кадров/сек, XviD ~ 1285 kbps avg, 0.138 bit/pixel
Аудио: 48 kHz, Dolby Digital AC3 2.0, 192 kbps

Раздача от:
Общее
Полное имя : Pust.svetit.1960.SATRip_[New-team]_by_AVP_Studio.avi
Формат : AVI
Формат/Информация : Audio Video Interleave
Размер файла : 373 Мбайт
Продолжительность : 35 м. 5 с.
Общий поток : 1487 Кбит/сек
Программа кодирования : VirtualDubMod 1.5.10.3 | www.virtualdub-fr.org || (build 2550/release)
Библиотека кодирования : VirtualDubMod build 2550/release

Видео
Идентификатор : 0
Формат : MPEG-4 Visual
Профиль формата : Advanced Simple@L5
Настройки формата : BVOP1 / Custom Matrix
Параметр BVOP формата : 1
Параметр QPel формата : Нет
Параметр GMC формата : Без точки перехода
Параметр матрицы формата : Выборочная
Идентификатор кодека : XVID
Идентификатор кодека/Подсказка : XviD
Продолжительность : 35 м. 5 с.
Битрейт : 1285 Кбит/сек
Ширина : 704 пикселя
Высота : 528 пикселей
Соотношение сторон : 4:3
Частота кадров : 25,000 кадров/сек
Цветовое пространство : YUV
Субдискретизация насыщенности : 4:2:0
Битовая глубина : 8 бит
Тип развёртки : Прогрессивная
Метод сжатия : С потерями
Бит/(Пиксели*Кадры) : 0.138
Размер потока : 322 Мбайт (86%)
Библиотека кодирования : XviD 73

Аудио
Идентификатор : 1
Формат : AC-3
Формат/Информация : Audio Coding 3
Идентификатор кодека : 2000
Продолжительность : 35 м. 5 с.
Вид битрейта : Постоянный
Битрейт : 192 Кбит/сек
Каналы : 2 канала
Расположение каналов : Front: L R
Частота : 48,0 КГц
Частота кадров : 31,250 кадров/сек (1536 SPF)
Битовая глубина : 16 бит
Метод сжатия : С потерями
Размер потока : 48,2 Мбайт (13%)
Выравнивание : Разделение по промежуткам
Продолжительность промежутка : 40 мс. (1,00 видеокадр)
Время предзагрузки промежутка : 500 мс


 
Не забывайте говорить Спасибо. Не уходите с раздачи!   
Торрент: Зарегистрирован [06 июл 2018, 11:29] Скачать торрент
Скачать торрент
[ Размер 15.89 КБ / Просмотров 1 ]
Статус:
Проверен
 
.torrent скачан: 0 раз
Хэш: afe07b528027bf4792580a1309d1a55058e7a0b6
Размер: 373.11 МБ (391 237 632 байт)
Стать Автором раздачи
 
 
Раздал: 100 ГБ
Скачал: 0 байт
Ратио: Seed.
Сообщения: 58525
Зарегистрирован: 31 мар 2015, 18:04


  • Похожие торренты
    Ответы
    Просмотры
    Последнее сообщение

Вернуться в Кино СССР, Советской России, Российской республики (1917-1991)

Ресурс не предоставляет электронные версии произведений, а занимается лишь коллекционированием и каталогизацией ссылок, присылаемых и публикуемых на форуме нашими читателями. Если вы являетесь правообладателем какого-либо представленного материала и не желаете чтобы ссылка на него находилась в нашем каталоге, свяжитесь с нами и мы незамедлительно удалим её. Файлы для обмена на трекере предоставлены пользователями сайта, и администрация не несёт ответственности за их содержание. Просьба не заливать файлы, защищенные авторскими правами, а также файлы нелегального содержания!
cron