Первому игроку приготовиться / Ready Player One (Стивен Спилберг / Steven Spielberg) [2018, США, фантастика, боевик, приключения, BDRip-AVC] Dub + Original + Sub (rus, eng)

 
 Статистика раздачи 
Размер: 4.23 ГБ   |  Зарегистрирован: 05 июл 2018, 21:55   |   .torrent скачан: 0 раз
Сидеров: 1  [ 0 байт/сек ]     Личеров: 0  [ 0 байт/сек ]  
  

Первому игроку приготовиться / Ready Player One (Стивен Спилберг / Steven Spielberg) [2018, США, фантастика, боевик, приключения, BDRip-AVC] Dub + Original + Sub (rus, eng)

Сообщение Nakazhu » 06 июл 2018, 01:12

Первому игроку приготовиться / Ready Player One
«Загрузи новую реальность»

Страна: США
Жанр: фантастика, боевик, приключения
Год выпуска: 2018
Продолжительность: 02:19:58
Перевод: Профессиональный (дублированный) (iTunes)
Оригинальная аудиодорожка: английский
Субтитры: русские (форс., полные) английские (полные, SDH)
Навигация по главам: есть
Режиссер: Стивен Спилберг / Steven Spielberg
В ролях: Тай Шеридан (Parzival / Wade), Оливия Кук (Art3mis / Samantha), Бен Мендельсон (Sorrento), Лина Уэйте (Aech / Helen), ТиДжей Миллер (I-R0k), Саймон Пегг (Ogden Morrow), Марк Райлэнс (Anorak / Halliday), Филип Чжао (Sho), Уин Морисаки (Daito), Ханна Джон-Кэймен (F'Nale Zandor), Ралф Айнесон (Rick), Сьюзэн Линч (Alice)
Описание: Действие фильма происходит в 2045 году, мир погружается в хаос и находится на грани коллапса. Люди ищут спасения в игре OASIS - огромной вселенной виртуальной реальности. Ее создатель, гениальный и эксцентричный Джеймс Холлидэй, оставляет уникальное завещание. Все его колоссальное состояние получит игрок, первым обнаруживший цифровое «пасхальное яйцо», которое миллиардер спрятал где-то на просторах OASISа. Запущенный им квест охватывает весь мир. Совершенно негероический парень по имени Уэйд Уоттс решает принять участие в состязании, с головой бросаясь в головокружительную, искажающую реальность погоню за сокровищами по фантастической вселенной, полной загадок, открытий и опасностей.

Качество: BDRip-AVC (исходник - BDRemux|READY_PLAYER_ONE_2018_RMX_BLUEBIRD)
Формат видео: MKV
Видео: x264, 1152x482 (2.40:1) 23,976 fps, ~3411 kbps, 0,256 bit/pixel
Аудио 1: 48 kHz, AC3 Dolby Digital, 3/2 (L,C,R,l,r) + LFE ch, ~384 kbps [русский]
Аудио 2: 48 kHz, AC3 Dolby Digital, 3/2 (L,C,R,l,r) + LFE ch, ~448 kbps [английский]
Формат субтитров: softsub (SRT)
Format : Matroska
Format version : Version 4 / Version 2
File size : 4.23 GiB
Duration : 2 h 19 min
Overall bit rate : 4 329 kb/s
Movie name : Первому игроку приготовиться / Ready Player One (2018) :: AFM ::
Encoded date : UTC 2018-07-05 21:34:56
Writing application : mkvmerge v8.3.0 ('Over the Horizon') 32bit
Writing library : libebml v1.3.1 + libmatroska v1.4.2
Cover : Yes
Attachments : cover.jpg
Video
ID : 1
Format : AVC
Format/Info : Advanced Video Codec
Format profile : High@L4.1
Format settings, CABAC : Yes
Format settings, ReFrames : 12 frames
Codec ID : V_MPEG4/ISO/AVC
Duration : 2 h 19 min
Bit rate : 3 411 kb/s
Width : 1 152 pixels
Height : 482 pixels
Display aspect ratio : 2.40:1
Frame rate mode : Constant
Frame rate : 23.976 (24000/1001) FPS
Color space : YUV
Chroma subsampling : 4:2:0
Bit depth : 8 bits
Scan type : Progressive
Bits/(Pixel*Frame) : 0.256
Stream size : 3.34 GiB (79%)
Title : BDRip by AFM
Writing library : x264 core 155 r2867+82 a249126 t_mod_Custom_2 [8-bit@all X86_64]
Encoding settings : cabac=1 / ref=12 / deblock=1:-3:-2 / analyse=0x3:0x133 / me=umh / subme=10 / psy=1 / fade_compensate=0.00 / psy_rd=1.00:0.00 / mixed_ref=1 / me_range=32 / chroma_me=0 / trellis=2 / 8x8dct=1 / cqm=0 / deadzone=21,11 / fast_pskip=0 / chroma_qp_offset=-2 / threads=6 / lookahead_threads=1 / sliced_threads=0 / nr=0 / decimate=1 / interlaced=0 / bluray_compat=0 / constrained_intra=0 / fgo=0 / bframes=14 / b_pyramid=2 / b_adapt=2 / b_bias=0 / direct=1 / weightb=1 / open_gop=0 / weightp=2 / keyint=240 / keyint_min=23 / scenecut=40 / intra_refresh=0 / rc_lookahead=90 / rc=crf / mbtree=0 / crf=18.5000 / qcomp=0.65 / qpmin=0:0:0 / qpmax=69:69:69 / qpstep=4 / vbv_maxrate=50000 / vbv_bufsize=62500 / crf_max=0.0 / nal_hrd=none / filler=0 / ip_ratio=1.35 / pb_ratio=1.27 / aq=3:0.80 / aq-sensitivity=10.00 / aq-factor=1.00:1.00:1.00 / aq2=0 / aq3=0
Language : English
Default : Yes
Forced : No
Audio #1
ID : 2
Format : AC-3
Format/Info : Audio Coding 3
Mode extension : CM (complete main)
Format settings, Endianness : Big
Codec ID : A_AC3
Duration : 2 h 19 min
Bit rate mode : Constant
Bit rate : 384 kb/s
Channel(s) : 6 channels
Channel positions : Front: L C R, Side: L R, LFE
Sampling rate : 48.0 kHz
Frame rate : 31.250 FPS (1536 spf)
Compression mode : Lossy
Stream size : 384 MiB (9%)
Title : Dub, AC3 5.1 ~384 kbps
Language : Russian
Default : No
Forced : No
Audio #2
ID : 3
Format : AC-3
Format/Info : Audio Coding 3
Mode extension : CM (complete main)
Format settings, Endianness : Big
Codec ID : A_AC3
Duration : 2 h 19 min
Bit rate mode : Constant
Bit rate : 448 kb/s
Channel(s) : 6 channels
Channel positions : Front: L C R, Side: L R, LFE
Sampling rate : 48.0 kHz
Frame rate : 31.250 FPS (1536 spf)
Compression mode : Lossy
Stream size : 449 MiB (10%)
Title : Original, AC3 5.1 ~448 kbps
Language : English
Default : No
Forced : No
Text #1
ID : 4
Format : UTF-8
Codec ID : S_TEXT/UTF8
Codec ID/Info : UTF-8 Plain Text
Title : forced
Language : Russian
Default : Yes
Forced : No
Text #2
ID : 5
Format : UTF-8
Codec ID : S_TEXT/UTF8
Codec ID/Info : UTF-8 Plain Text
Language : Russian
Default : No
Forced : No
Text #3
ID : 6
Format : UTF-8
Codec ID : S_TEXT/UTF8
Codec ID/Info : UTF-8 Plain Text
Language : English
Default : No
Forced : No
Text #4
ID : 7
Format : UTF-8
Codec ID : S_TEXT/UTF8
Codec ID/Info : UTF-8 Plain Text
Title : SDH
Language : English
Default : No
Forced : No
Menu
00:00:00.000 : en:Chapter 1
00:10:08.231 : en:Chapter 2
00:20:18.258 : en:Chapter 3
00:30:37.626 : en:Chapter 4
00:40:38.268 : en:Chapter 5
00:50:08.962 : en:Chapter 6
01:03:01.777 : en:Chapter 7
01:11:55.269 : en:Chapter 8
01:20:14.725 : en:Chapter 9
01:30:58.327 : en:Chapter 10
01:43:26.742 : en:Chapter 11
01:53:02.149 : en:Chapter 12
02:04:20.161 : en:Chapter 13
02:09:17.248 : en:Chapter 14
x264 [info]: frame I:1182 Avg QP:16.97 size: 69595
x264 [info]: frame P:49449 Avg QP:18.89 size: 33608
x264 [info]: frame B:150725 Avg QP:21.33 size: 12771
x264 [info]: consecutive B-frames: 3.0% 4.0% 10.5% 31.0% 18.7% 27.0% 2.3% 0.4% 0.7% 0.5% 0.2% 0.2% 0.3% 0.3% 0.9%
x264 [info]: mb I I16..4: 7.8% 73.2% 19.0%
x264 [info]: mb P I16..4: 2.0% 20.5% 3.7% P16..4: 34.2% 21.0% 11.9% 0.6% 0.2% skip: 6.0%
x264 [info]: mb B I16..4: 0.2% 2.4% 0.6% B16..8: 39.2% 13.8% 3.6% direct: 7.6% skip:32.6% L0:43.5% L1:42.2% BI:14.2%
x264 [info]: 8x8 transform intra:77.5% inter:67.3%
x264 [info]: coded y,uvDC,uvAC intra: 85.8% 87.6% 64.0% inter: 31.4% 29.7% 7.1%
x264 [info]: i16 v,h,dc,p: 16% 12% 5% 67%
x264 [info]: i8 v,h,dc,ddl,ddr,vr,hd,vl,hu: 12% 9% 5% 9% 14% 13% 14% 11% 13%
x264 [info]: i4 v,h,dc,ddl,ddr,vr,hd,vl,hu: 19% 7% 3% 9% 14% 13% 14% 10% 13%
x264 [info]: i8c dc,h,v,p: 40% 24% 18% 17%
x264 [info]: Weighted P-Frames: Y:8.5% UV:5.5%
x264 [info]: ref P L0: 45.6% 13.2% 14.9% 5.8% 5.0% 3.4% 3.1% 1.7% 1.9% 1.5% 2.3% 1.4% 0.2% 0.0%
x264 [info]: ref B L0: 77.2% 8.6% 4.3% 2.3% 2.8% 1.4% 1.3% 0.7% 0.7% 0.5% 0.3%
x264 [info]: ref B L1: 96.2% 3.8%
x264 [info]: kb/s:3495.12
 
Не забывайте говорить Спасибо. Не уходите с раздачи!   
Торрент: Зарегистрирован [05 июл 2018, 21:55] Скачать торрент
Скачать торрент
[ Размер 11.15 КБ / Просмотров 2 ]
Статус:
Проверен
 
.torrent скачан: 0 раз
Хэш: ebf676693da9fb1a76da40c681748ec8b2e774ef
Размер: 4.23 ГБ (4 545 010 099 байт)
Стать Автором раздачи
 
 
Раздал: 0 байт
Скачал: 0 байт
Ратио: Inf.
Сообщения: 487468
Зарегистрирован: 17 апр 2014, 13:57


  • Похожие торренты
    Ответы
    Просмотры
    Последнее сообщение

Вернуться в Зарубежное кино

Ресурс не предоставляет электронные версии произведений, а занимается лишь коллекционированием и каталогизацией ссылок, присылаемых и публикуемых на форуме нашими читателями. Если вы являетесь правообладателем какого-либо представленного материала и не желаете чтобы ссылка на него находилась в нашем каталоге, свяжитесь с нами и мы незамедлительно удалим её. Файлы для обмена на трекере предоставлены пользователями сайта, и администрация не несёт ответственности за их содержание. Просьба не заливать файлы, защищенные авторскими правами, а также файлы нелегального содержания!
cron