Неизвестный Покрышкин (Василий Смотров, Владимир Соколов) [2003, Документальный, биография, авиация, война, история, SATRip]

 
 Статистика раздачи 
Размер: 1.14 ГБ   |  Зарегистрирован: 05 июл 2018, 19:12   |   .torrent скачан: 0 раз
Сидеров: 1  [ 0 байт/сек ]     Личеров: 0  [ 0 байт/сек ]  
  

Неизвестный Покрышкин (Василий Смотров, Владимир Соколов) [2003, Документальный, биография, авиация, война, история, SATRip]

Сообщение Nakazhu » 05 июл 2018, 22:23

Неизвестный Покрышкин
Дата/Год выпуска: 2003
Страна: Россия, ГТРК «Новосибирск», Студия AVC
Жанр: Документальный, биография, авиация, война, история
Продолжительность: 01:21:32
Перевод: Не требуется
Режиссер: Василий Смотров, Владимир Соколов
Описание: Александр Покрышкин известен как реформатор боевой авиационной тактики. В результате постоянного анализа ведения воздушных боёв с противником он вырабатывал свой стиль боя, а затем теоретические выкладки проверял в бою, постоянно совершенствуя их. Так, например, он разработал и внедрил новые приёмы в действия советской авиации, такие как боевой порядок пары самолётов-истребителей, практику «свободной охоты», использование наземных радаров, а также новаторскую систему подготовки лётчиков. Он сам обучал молодых специалистов. «В результате настойчивой и целеустремленной работы Александру Покрышкину удалось создать ту критическую массу воздушных бойцов высокого класса, которые в решающей схватке весной 1943 года в кубанском небе сумели переломить ход воздушной войны и впервые отобрали у немцев господство в воздухе. Он никогда не ждал нападения, атаковал сам. «Начиная с Кубани, при одном появлении самолёта Покрышкина немецкие посты оповещения били тревогу: «Внимание! Внимание! В воздухе Покрышкин!».
Александр Покрышкин без остатка отдал себя своей профессии. Родина высоко оценила его воинские подвиги, он был отмечен многочисленными наградами. Он первым стал трижды Героем Советского Союза. Официально на счету у выдающегося лётчика было 59 воздушных побед, однако некоторые военные историки говорят об иной цифре, которая превосходит отметку в 110 выигранных боёв.
Доп. информация: Авторство релиза - alf62

качество: SATRip
формат: AVI
Видео: 704x528 (1.33:1), 30 fps, XviD build 73 ~1799 kbps avg, 0.16 bit/pixel
Аудио: 48 kHz, AC3 Dolby Digital, 2/0 (L,R) ch, ~192.00 kbps avg
Код: Выделить всё
Общее
Полное имя                               : E:\Запись\Сталинские соколы\Покрышкин\Неизвестный.Покрышкин.2003.XviD.SATRip.alf62.avi
Формат                                   : AVI
Формат/Информация                        : Audio Video Interleave
Размер файла                             : 1,14 Гбайт
Продолжительность                        : 1 ч. 21 м.
Общий поток                              : 2003 Кбит/сек
Программа кодирования                    : VirtualDubMod 1.5.10.2 (build 2542/release)
Библиотека кодирования                   : VirtualDubMod build 2542/release
Видео
Идентификатор                            : 0
Формат                                   : MPEG-4 Visual
Профиль формата                          : Advanced Simple@L5
Параметр BVOP формата                    : 2
Параметр QPel формата                    : Нет
Параметр GMC формата                     : Без точки перехода
Параметр матрицы формата                 : Default (MPEG)
Идентификатор кодека                     : XVID
Идентификатор кодека/Подсказка           : XviD
Продолжительность                        : 1 ч. 21 м.
Битрейт                                  : 1799 Кбит/сек
Ширина                                   : 704 пикселя
Высота                                   : 528 пикселей
Соотношение сторон                       : 4:3
Частота кадров                           : 30,000 кадров/сек
Цветовое пространство                    : YUV
Субдискретизация насыщенности            : 4:2:0
Битовая глубина                          : 8 бит
Тип развёртки                            : Прогрессивная
Метод сжатия                             : С потерями
Бит/(Пиксели*Кадры)                      : 0.161
Размер потока                            : 1,02 Гбайт (90%)
Библиотека кодирования                   : XviD 73
Аудио
Идентификатор                            : 1
Формат                                   : AC-3
Формат/Информация                        : Audio Coding 3
Расширение режима                        : CM (complete main)
Параметр Endianness формата              : Big
Идентификатор кодека                     : 2000
Продолжительность                        : 1 ч. 21 м.
Вид битрейта                             : Постоянный
Битрейт                                  : 192 Кбит/сек
Каналы                                   : 2 канала
Расположение каналов                     : Front: L R
Частота                                  : 48,0 КГц
Битовая глубина                          : 16 бит
Метод сжатия                             : С потерями
Задержка видео                           : 20 мс.
Размер потока                            : 112 Мбайт (10%)
Выравнивание                             : Разделение по промежуткам
Продолжительность промежутка             : 33  мс. (1,00 видеокадр)
Время предзагрузки промежутка            : 500  мс.

 
Не забывайте говорить Спасибо. Не уходите с раздачи!   
Торрент: Зарегистрирован [05 июл 2018, 19:12] Скачать торрент
Скачать торрент
[ Размер 12.02 КБ / Просмотров 1 ]
Статус:
Проверен
 
.torrent скачан: 0 раз
Хэш: bef6bb989143e2ae79d2dc9faa365c87ba771e30
Размер: 1.14 ГБ (1 224 765 440 байт)
Стать Автором раздачи
 
 
Раздал: 0 байт
Скачал: 0 байт
Ратио: Inf.
Сообщения: 487468
Зарегистрирован: 17 апр 2014, 13:57


  • Похожие торренты
    Ответы
    Просмотры
    Последнее сообщение

Вернуться в Документальные фильмы и телепередачи

Ресурс не предоставляет электронные версии произведений, а занимается лишь коллекционированием и каталогизацией ссылок, присылаемых и публикуемых на форуме нашими читателями. Если вы являетесь правообладателем какого-либо представленного материала и не желаете чтобы ссылка на него находилась в нашем каталоге, свяжитесь с нами и мы незамедлительно удалим её. Файлы для обмена на трекере предоставлены пользователями сайта, и администрация не несёт ответственности за их содержание. Просьба не заливать файлы, защищенные авторскими правами, а также файлы нелегального содержания!
cron