ТСН / Телевізійна Служба Новин / Выпуски за июль [2018, Информация, публицистика, репортаж, SATRip] 5 выпусков

 
 Статистика раздачи 
Размер: 1.93 ГБ   |  Зарегистрирован: 01 июл 2018, 20:15   |   .torrent скачан: 0 раз
Сидеров: 1  [ 0 байт/сек ]     Личеров: 0  [ 0 байт/сек ]  
  

ТСН / Телевізійна Служба Новин / Выпуски за июль [2018, Информация, публицистика, репортаж, SATRip] 5 выпусков

Сообщение Nakazhu » 05 июл 2018, 21:51

ТСН / Телевізійна Служба Новин
за июль 2018 года

5 июля в 21:41 добавлен выпуск за 5 июля,
перекачайте торрент-файл, пожалуйста
Все выпуски
Год выпуска: 2018
Страна: Украина
Жанр: Информационная программа
Ведущие: Алла Мазур, Наталья Мосейчук, Лидия Таран, Юлия Бориско
Язык: Украинский, русский
Описание:
Основной выпуск «ТСН» - это актуальные и оперативные новости о событиях в Украине и мире.
Вас ждут только важные и интересные факты.
Выход в эфир: на "1+1" с понедельника по субботу, в 19.30.
Продолжительность: ~ 00:50:00
---
«ТСН. Тиждень» - это актуальные комментарии и гости студии, обзор главных событий в стране и мире за прошлую неделю, острые вопросы к главным действующим лицам, мнение авторитетных экспертов и аналитические прогнозы.
Выход в эфир: на "1+1" в воскресенье, в 19.30.
Продолжительность: ~ 01:20:00
1) Выпуск за 1 июля (ТСН.Тиждень):
Уникальный концерт в Киеве от звезды Голливуда, старт медицинской революции, маслообман в Украине и другое...
- - - - -
2) Выпуск за 2 июля:
Украинские туристы в ловушке, затопленная школа, кот-дегустатор и другое...
- - - - -
3) Выпуск за 3 июля:
Смерч в Одессе, отравление детей в частном лагере, девушка антикоррупционного прокурора и другое...
- - - - -
4) Выпуск за 4 июля:
Еще более суровые наказания для пьяных водителей, последствия железнодорожной аварии в Одесской области, экстремальные роды в уличном туалете и другое...
- - - - -
5) Выпуск за 5 июля:
Подорожание проезда в Киеве, экскурсия в академии Нацполиции, встреча Сенцова с сестрой и другое...
- - - - -

Качество: SATRip
Формат: AVI
Видео кодек: XviD _ Аудио кодек: MP3
Видео: 720x400 (16:9), 25 fps, XviD build 50, 896 kbps avg, 0.124 bit/pixel
Аудио: 48.0 kHz, MPEG Layer 3, 1 ch, 128.00 kbps
Код: Выделить всё
General
Complete name               : F:\Мои раздачи\Новости\2018\ТСН\TSN_1+1.(2018_07)\[2018-07-01 19-30] ТСН.Тиждень.avi
Format                      : AVI
Format/Info                 : Audio Video Interleave
File size                   : 629 MiB
Duration                    : 1 h 25 min
Overall bit rate            : 1 033 kb/s
Video
ID                          : 0
Format                      : MPEG-4 Visual
Format profile              : Advanced Simple@L5
Format settings, BVOP       : 2
Format settings, QPel       : No
Format settings, GMC        : No warppoints
Format settings, Matrix     : Default (H.263)
Codec ID                    : XVID
Codec ID/Hint               : XviD
Duration                    : 1 h 25 min
Bit rate                    : 895 kb/s
Width                       : 720 pixels
Height                      : 400 pixels
Display aspect ratio        : 16:9
Frame rate                  : 25.000 FPS
Color space                 : YUV
Chroma subsampling          : 4:2:0
Bit depth                   : 8 bits
Scan type                   : Progressive
Compression mode            : Lossy
Bits/(Pixel*Frame)          : 0.124
Stream size                 : 545 MiB (87%)
Writing library             : XviD 73
Audio
ID                          : 1
Format                      : MPEG Audio
Format version              : Version 1
Format profile              : Layer 3
Codec ID                    : 55
Codec ID/Hint               : MP3
Duration                    : 1 h 25 min
Bit rate mode               : Constant
Bit rate                    : 128 kb/s
Channel(s)                  : 1 channel
Sampling rate               : 48.0 kHz
Compression mode            : Lossy
Stream size                 : 78.0 MiB (12%)
Alignment                   : Split accross interleaves
Interleave, duration        : 40  ms (1.00 video frame)
Interleave, preload duratio : 500  ms

При каждом добавлении создаётся новый торрент. Чтобы начать докачку нового выпуска, пользователям необходимо сделать следующее:
● остановить скачивание;
● удалить старый торрент у себя из клиента (старые выпуски удалять не надо);
● скачать новый торрент и запустить его у себя в клиенте вместо старого, при этом указать клиенту путь в старую папку куда и должно происходить скачивание новых выпусков;
● ваш клиент при запуске должен произвести хеширование (проверку) старой папки (если не производит сам - помогите ему сделать это), и будет докачивать только те выпуски, которых у вас ещё нет. Старые выпуски при этом не удаляются, а продолжают раздаваться!
● Eсли вы уже удалили старые выпуски, то предотвратить повторную закачку старых выпусков можно, отжав галочку в соответсвующих местах при запуске нового торрента.
Как закачать отдельный файл из торрента или докачать ранее пропущенные файлы торрента!
При закачке сериалов или видео-сборников рекомендую такую схему:
выставляем приоритет первого выпуска Высокий, следующих 1-2-х выпусков - Нормальный, следующих 1-2-х выпусков - Низкий, приоритет остальных пока ставим - Не загружать (пропущен).
По мере выкачки первых выпусков меняем приоритеты последующих. В итоге довольно скоро начинаем смотреть первые выпуски, а остальные пока качаются.

Украинские политические ток-шоу в прямом эфире:
Шустер live (ТРК "Украина", "Первый национальный")
Свобода слова (ICTV)
Большая Политика (ИНТЕР)
РесПублика с Анной Безулик (5 канал)
Вечер с Николаем Княжицким (ТВi)
Черное и белое (TVi)
---
Российские политические ток-шоу в прямом эфире:
Прямой эфир с Савиком Шустером (РБК ТВ)
---
Заседания Совета Безопасности ООН по Украине за март-май 2014 г
Если на раздаче долгое время нет раздающих - пишите мне в личку
 
Не забывайте говорить Спасибо. Не уходите с раздачи!   
Торрент: Зарегистрирован [01 июл 2018, 20:15] Скачать торрент
Скачать торрент
[ Размер 20.17 КБ / Просмотров 2 ]
Статус:
Проверен
 
.torrent скачан: 0 раз
Хэш: 9e19a3e877ae7faa94a1947f3f99a1ee8d84ce39
Размер: 1.93 ГБ (2 070 473 862 байт)
Стать Автором раздачи
 
 
Раздал: 0 байт
Скачал: 0 байт
Ратио: Inf.
Сообщения: 487468
Зарегистрирован: 17 апр 2014, 13:57


  • Похожие торренты
    Ответы
    Просмотры
    Последнее сообщение

Вернуться в Документальные фильмы и телепередачи

Ресурс не предоставляет электронные версии произведений, а занимается лишь коллекционированием и каталогизацией ссылок, присылаемых и публикуемых на форуме нашими читателями. Если вы являетесь правообладателем какого-либо представленного материала и не желаете чтобы ссылка на него находилась в нашем каталоге, свяжитесь с нами и мы незамедлительно удалим её. Файлы для обмена на трекере предоставлены пользователями сайта, и администрация не несёт ответственности за их содержание. Просьба не заливать файлы, защищенные авторскими правами, а также файлы нелегального содержания!
cron