Время новостей Донбасса. Июль 2018 (телеканал "Донбасс") [2018, информационная программа, DVB] 4 выпуска

 
 Статистика раздачи 
Размер: 927.64 МБ   |  Зарегистрирован: 02 июл 2018, 19:29   |   .torrent скачан: 0 раз
Сидеров: 1  [ 0 байт/сек ]     Личеров: 0  [ 0 байт/сек ]  
  

Время новостей Донбасса. Июль 2018 (телеканал "Донбасс") [2018, информационная программа, DVB] 4 выпуска

Сообщение Nakazhu » 05 июл 2018, 21:20

Время новостей Донбасса. Июль 2018
Дата/Год выпуска: 2018
Страна: Украина
Жанр: информационная программа
Продолжительность: 4x15 мин.
Перевод: Не требуется
Русские субтитры: нет
Оригинальная аудиодорожка: русский
Ведущие: Сергей Грунов и Юлия Меньшакирова
Телеканал: ДонбассОписание: Уникальное видео и наиболее важная информация! «Время новостей Донбасса» ежедневно показывает то, что жители региона обсуждают потом неделями. Нас смотрят телезрители Донецкой и Луганской областей, а цитируют интернет-издания всей Украины. «Время новостей Донбасса» – единственная в регионе программа, журналисты которой информируют население в прямых включениях с места события. Мы делаем лучшие региональные новости. Это доказывают рейтинги и признали эксперты Национальной телевизионной премии «Телетриумф-2012».
«Время новостей Донбасса» – это результат успешного сотрудничества журналистов и телезрителей. Как поделиться своей новостью, видео и стать героем программы – смотрите в разделе «Ты-Очевидец». Кроме того мы есть ВКонтакте и Facebook. До встречи в телевизионном эфире!
Доп. информация: Программа на русском языке, но украинская речь присутствует. Время в списке выпусков указано киевское.Сэмпл: https://www.sendspace.com/file/n1v9g4
качество: DVB
формат: TS/M2TS
Видео: MPEG4 Video (H264) 720x576 (4:3) ~1845kbps 25fps
Аудио: MPEG Audio 48kHz 1ch 128kbps
1. 2 июля 2018 года (18:00).
2. 3 июля 2018 года (18:00).
3. 4 июля 2018 года (18:00).
4. 5 июля 2018 года (18:00).
Код: Выделить всё
General
ID                          : 1 (0x1)
Complete name               : F:\Мои раздачи\Новости\2018\Время новостей Донбасса\Время новостей Донбасса. Июль 2018\[2018-07-02 18-00] Час новин Донбасу.ts
Format                      : MPEG-TS
File size                   : 223 MiB
Duration                    : 15 min 47 s
Overall bit rate mode       : Variable
Overall bit rate            : 1 974 kb/s
Video
ID                          : 6651 (0x19FB)
Menu ID                     : 1 (0x1)
Format                      : AVC
Format/Info                 : Advanced Video Codec
Format profile              : Main@L3
Format settings, CABAC      : Yes
Format settings, ReFrames   : 4 frames
Format settings, GOP        : M=3, N=24
Codec ID                    : 27
Duration                    : 15 min 47 s
Bit rate                    : 1 747 kb/s
Width                       : 720 pixels
Height                      : 576 pixels
Display aspect ratio        : 4:3
Frame rate                  : 25.000 FPS
Standard                    : PAL
Color space                 : YUV
Chroma subsampling          : 4:2:0
Bit depth                   : 8 bits
Scan type                   : MBAFF
Scan type, store method     : Interleaved fields
Scan order                  : Top Field First
Bits/(Pixel*Frame)          : 0.169
Stream size                 : 197 MiB (89%)
Color range                 : Limited
Audio
ID                          : 6653 (0x19FD)
Menu ID                     : 1 (0x1)
Format                      : MPEG Audio
Format version              : Version 1
Format profile              : Layer 2
Codec ID                    : 3
Duration                    : 15 min 47 s
Bit rate mode               : Constant
Bit rate                    : 128 kb/s
Channel(s)                  : 1 channel
Sampling rate               : 48.0 kHz
Compression mode            : Lossy
Stream size                 : 14.5 MiB (6%)
Language                    : Ukrainian
Внимание! Раздача ведётся путём добавления новых выпусков; при каждом добавлении создаётся новый торрент. Чтобы начать докачку нового выпуска, пользователям необходимо сделать следующее:
(1) остановить скачивание,
(2) удалить старый торрент у себя из клиента (старые серии удалять не надо),
(3) скачать новый торрент и запустить его у себя в клиенте вместо старого, при этом указать клиенту путь в старую папку куда и должно происходить скачивание новых выпусков.
Ваш клиент при этом должен произвести хеширование (проверку) старой папки (если не производит сам - помогите ему сделать это). В результате он будет докачивать только те выпуски, которых у Вас ещё нет. Старые выпуски при этом не удаляются, а продолжают раздаваться!
Eсли Вы уже удалили старые выпуски, то предотвратить их повторную закачку можно, сняв галочки в соответствующих местах при запуске нового торрента. По возможности, желательно не удалять старые выпуски как можно дольше, чтобы релизёр не только продолжал раздавать старые выпуски, но и смог сконцентрироваться на новых.
 
Не забывайте говорить Спасибо. Не уходите с раздачи!   
Торрент: Зарегистрирован [02 июл 2018, 19:29] Для скачивания .torrent
необходима регистрация
Или скачать с помощью
MediaGet
Статус:
Проверен
 
.torrent скачан: 0 раз
Хэш: c840b192722019012b37fd7854dce96600334e8d
Размер: 927.64 МБ (972 698 088 байт)
Стать Автором раздачи
 
 
Раздал: 0 байт
Скачал: 0 байт
Ратио: Inf.
Сообщения: 487468
Зарегистрирован: 17 апр 2014, 13:57


  • Похожие торренты
    Ответы
    Просмотры
    Последнее сообщение

Вернуться в Документальные фильмы и телепередачи

Ресурс не предоставляет электронные версии произведений, а занимается лишь коллекционированием и каталогизацией ссылок, присылаемых и публикуемых на форуме нашими читателями. Если вы являетесь правообладателем какого-либо представленного материала и не желаете чтобы ссылка на него находилась в нашем каталоге, свяжитесь с нами и мы незамедлительно удалим её. Файлы для обмена на трекере предоставлены пользователями сайта, и администрация не несёт ответственности за их содержание. Просьба не заливать файлы, защищенные авторскими правами, а также файлы нелегального содержания!
cron