(Psychill | Futuristic | Ambient) [WEB] Karmahacker - Mind Spread - 2018, FLAC (tracks), lossless

 
 Статистика раздачи 
Размер: 442.61 МБ   |  Зарегистрирован: 05 июл 2018, 17:37   |   .torrent скачан: 0 раз
Сидеров: 1  [ 0 байт/сек ]     Личеров: 0  [ 0 байт/сек ]  
  

(Psychill | Futuristic | Ambient) [WEB] Karmahacker - Mind Spread - 2018, FLAC (tracks), lossless

Сообщение Nakazhu » 05 июл 2018, 20:49


Karmahacker - Mind Spread





• Жанр: Psychill | Futuristic | Ambient
• Носитель: WEB
• Год издания: 2018
• Издатель (лейбл) Cosmicleaf Records
• Номер по каталогу: CLCD242DG
• Страна-производитель релиза: Greece
• Аудиокодек: FLAC (*.flac)
• Тип рипа: tracks
• Продолжительность: 01:10:22
• Источник (релизер): NTDMMANIAC ®
• WEB релиз: bandcamp
• Наличие сканов: front

01 - Mind Spread (00:07:15)
02 - Dub Stab (00:07:06)
03 - Cryostasis (00:10:14)
04 - Exo 2 (00:08:24)
05 - Happy (Album Version) (00:08:03)
06 - Posthuman (00:06:19)
07 - Assimilate (Album Version) (00:07:59)
08 - Force Field (00:09:12)
09 - Outro (00:05:46)

foobar2000 1.2.5 / Замер динамического диапазона (DR) 1.1.1
Дата отчёта: 2018-07-05 11:02:13
--------------------------------------------------------------------------------
Анализ: Karmahacker / Mind Spread
--------------------------------------------------------------------------------
DR Пики RMS Продолжительность трека
--------------------------------------------------------------------------------
DR6 0.00 дБ -8.17 дБ 7:16 01-Mind Spread
DR6 0.00 дБ -8.11 дБ 7:06 02-Dub Stab
DR5 0.00 дБ -8.38 дБ 10:14 03-Cryostasis
DR6 0.00 дБ -8.10 дБ 8:24 04-Exo 2
DR7 0.00 дБ -8.49 дБ 8:03 05-Happy (Album Version)
DR7 0.00 дБ -7.85 дБ 6:20 06-Posthuman
DR7 0.00 дБ -10.08 дБ 8:00 07-Assimilate (Album Version)
DR6 0.00 дБ -7.91 дБ 9:13 08-Force Field
DR10 0.00 дБ -13.80 дБ 5:47 09-Outro
--------------------------------------------------------------------------------
Количество треков: 9
Реальные значения DR: DR7
Частота: 44100 Гц
Каналов: 2
Разрядность: 16
Битрейт: 821 кбит/с
Кодек: FLAC
================================================================================

Код: Выделить всё
-----------------------
DON'T MODIFY THIS FILE
-----------------------
PERFORMER: auCDtect Task Manager, ver. 1.6.0 RC1 build 1.6.0.1
Copyright (c) 2008-2010 y-soft. All rights reserved
[url=http://y-soft.org]http://y-soft.org[/url]
ANALYZER: auCDtect: CD records authenticity detector, version 0.8.2
Copyright (c) 2004 Oleg Berngardt. All rights reserved.
Copyright (c) 2004 Alexander Djourik. All rights reserved.
FILE: 09. Karmahacker - Outro.flac
  Size: 37177362 Hash: 01D84E589FC6FCFD6EC37E07C437FC97 Accuracy: -m0
  Conclusion: CDDA 100%
  Signature: EDAA09FCFC1470B7C5AE354580583402E206FB32
FILE: 08. Karmahacker - Force Field.flac
  Size: 64716006 Hash: 1B86CD8F79C8D34C4DBDF563C242DEDE Accuracy: -m0
  Conclusion: CDDA 99%
  Signature: 0BA90224605B7DE6BD4FE72130FB9574DE61B92F
FILE: 07. Karmahacker - Assimilate (Album Version).flac
  Size: 56273337 Hash: F8B5BB2F1937A3161CAFBA4813672C31 Accuracy: -m0
  Conclusion: CDDA 100%
  Signature: 1C304BB59E308C2A53F938BAF829C0C8586451BB
FILE: 06. Karmahacker - Posthuman.flac
  Size: 43093991 Hash: 1E0444342E64762C83B598A5229768A0 Accuracy: -m0
  Conclusion: CDDA 100%
  Signature: 4D51911798EBE8B8946966CA98A11A39B7859C8D
FILE: 05. Karmahacker - Happy (Album Version).flac
  Size: 58911262 Hash: B52E7CC3AB7CC65BB343C66E3368E86A Accuracy: -m0
  Conclusion: CDDA 100%
  Signature: 01C8E28C1E0F6F6B2BE58968C7FB843273CFEB82
FILE: 04. Karmahacker - Exo 2.flac
  Size: 57276267 Hash: 453F6883682529054E641877B9A5EC90 Accuracy: -m0
  Conclusion: CDDA 100%
  Signature: 50196C668A4E9F4C2EC0B9B687DF704392184906
FILE: 03. Karmahacker - Cryostasis.flac
  Size: 62013077 Hash: 4215F12D7C57EB0F3B7D2D7CFF2466E9 Accuracy: -m0
  Conclusion: CDDA 100%
  Signature: 2E2C57E35244B121D466397C6972597E890FD49B
FILE: 02. Karmahacker - Dub Stab.flac
  Size: 46975307 Hash: 651EFF349F457AEBF3DDBD8F53BC7EEB Accuracy: -m0
  Conclusion: CDDA 100%
  Signature: 3A9F856AA1D9FD0543FF3749E34DFE0BCE65134D
FILE: 01. Karmahacker - Mind Spread.flac
  Size: 48848431 Hash: 959BBC06D0388FE39F078DA000092168 Accuracy: -m0
  Conclusion: CDDA 100%
  Signature: A65DB2A490CD126CAB7FA26BDFC20D068DA17593


 
Не забывайте говорить Спасибо. Не уходите с раздачи!   
Торрент: Зарегистрирован [05 июл 2018, 17:37] Скачать торрент
Скачать торрент
[ Размер 18.29 КБ / Просмотров 10 ]
Статус:
Проверен
 
.torrent скачан: 0 раз
Хэш: bdcde3f7a38101968b40e39f6dd6be0d3e475b15
Размер: 442.61 МБ (464 109 135 байт)
Стать Автором раздачи
 
 
Раздал: 0 байт
Скачал: 0 байт
Ратио: Inf.
Сообщения: 487468
Зарегистрирован: 17 апр 2014, 13:57


  • Похожие торренты
    Ответы
    Просмотры
    Последнее сообщение

Вернуться в PsyChill, Ambient Dub (lossless)

Ресурс не предоставляет электронные версии произведений, а занимается лишь коллекционированием и каталогизацией ссылок, присылаемых и публикуемых на форуме нашими читателями. Если вы являетесь правообладателем какого-либо представленного материала и не желаете чтобы ссылка на него находилась в нашем каталоге, свяжитесь с нами и мы незамедлительно удалим её. Файлы для обмена на трекере предоставлены пользователями сайта, и администрация не несёт ответственности за их содержание. Просьба не заливать файлы, защищенные авторскими правами, а также файлы нелегального содержания!
cron