[TR24][OF] Living Marimbas Plus Strings (cond. Leo Addeo) - MacArthur Park And Other Favorites - 1968/2018 (Easy Listening)

 
 Статистика раздачи 
Размер: 656.09 МБ   |  Зарегистрирован: 05 июл 2018, 10:43   |   .torrent скачан: 0 раз
Сидеров: 1  [ 0 байт/сек ]     Личеров: 0  [ 0 байт/сек ]  
  

[TR24][OF] Living Marimbas Plus Strings (cond. Leo Addeo) - MacArthur Park And Other Favorites - 1968/2018 (Easy Listening)

Сообщение Nakazhu » 05 июл 2018, 13:50

Living Marimbas Plus Strings (cond. Leo Addeo) - MacArthur Park And Other Favorites
Формат записи/Источник записи: [TR24][OF]
Наличие водяных знаков: Нет
Год издания/переиздания диска: 1968/2018
Жанр: Easy Listening
Издатель (лейбл): RCA/Legacy
Продолжительность: 28:21
Наличие сканов в содержимом раздачи: Только обложка альбома
Источник: WRZmusic
Магазин: qobuz.com
Треклист:
01. MacArthur Park (2:39)
02. Mrs. Robinson (2:47)
03. This Guy's In Love With You (2:40)
04. Lullabye From “Rosemary's Baby” (2:57)
05. A Man Without Love (Quando M'Innamoro) (3:34)
06. Eleanor Rigby (2:53)
07. The Odd Couple (3:01)
08. Gramercy Park (2:16)
09. Red Wing (3:04)
10. The Dove (La Paloma) (2:30)
Leo Addeo – conductor, arranger
Producer – Ethel Gabriel
Recorded in RCA's Studio B, New York City. 

Контейнер: FLAC (*.flac)
Тип рипа: tracks
Разрядность: 24/96
Формат: PCM
Количество каналов: 2.0
Код: Выделить всё
foobar2000 1.3.9 / Dynamic Range Meter 1.1.1
log date: 2018-07-05 13:27:32
--------------------------------------------------------------------------------
Analyzed: Living Marimbas Plus Strings / MacArthur Park And Other Favorites
--------------------------------------------------------------------------------
DR         Peak         RMS     Duration Track
--------------------------------------------------------------------------------
DR10      -0.96 dB   -13.20 dB      2:39 01-MacArthur Park
DR11      -0.02 dB   -11.68 dB      2:47 02-Mrs. Robinson
DR10      -0.44 dB   -12.37 dB      2:40 03-This Guy's In Love With You
DR10      -0.58 dB   -12.57 dB      2:57 04-Lullabye From “Rosemary's Baby”
DR10      -0.62 dB   -12.99 dB      3:34 05-A Man Without Love (Quando M'Innamoro)
DR11      -0.33 dB   -13.88 dB      2:53 06-Eleanor Rigby
DR11      -0.23 dB   -13.42 dB      3:01 07-The Odd Couple
DR12      -0.30 dB   -13.71 dB      2:16 08-Gramercy Park
DR11      -0.14 dB   -12.78 dB      3:04 09-Red Wing
DR10      -0.08 dB   -13.89 dB      2:30 10-The Dove (La Paloma)
--------------------------------------------------------------------------------
Number of tracks:  10
Official DR value: DR10
Samplerate:        96000 Hz
Channels:          2
Bits per sample:   24
Bitrate:           3176 kbps
Codec:             FLAC
================================================================================
 
 
Не забывайте говорить Спасибо. Не уходите с раздачи!   
Торрент: Зарегистрирован [05 июл 2018, 10:43] Скачать торрент
Скачать торрент
[ Размер 14.01 КБ / Просмотров 10 ]
Статус:
Проверен
 
.torrent скачан: 0 раз
Хэш: e017a5d3816c232ee6507009f9e878a8367d3ed7
Размер: 656.09 МБ (687 963 941 байт)
Стать Автором раздачи
 
 
Раздал: 0 байт
Скачал: 0 байт
Ратио: Inf.
Сообщения: 487468
Зарегистрирован: 17 апр 2014, 13:57


  • Похожие торренты
    Ответы
    Просмотры
    Последнее сообщение

Вернуться в Многоканальная музыка и собственные оцифровки (поп-музыка)

Ресурс не предоставляет электронные версии произведений, а занимается лишь коллекционированием и каталогизацией ссылок, присылаемых и публикуемых на форуме нашими читателями. Если вы являетесь правообладателем какого-либо представленного материала и не желаете чтобы ссылка на него находилась в нашем каталоге, свяжитесь с нами и мы незамедлительно удалим её. Файлы для обмена на трекере предоставлены пользователями сайта, и администрация не несёт ответственности за их содержание. Просьба не заливать файлы, защищенные авторскими правами, а также файлы нелегального содержания!
cron