Свобода слова (ICTV) | Выпуски за июль (+2 июля) [2018, Политическое ток-шоу, IPTVRip]

 
 Статистика раздачи 
Размер: 451.79 МБ   |  Зарегистрирован: 04 июл 2018, 19:51   |   .torrent скачан: 0 раз
Сидеров: 1  [ 0 байт/сек ]     Личеров: 0  [ 0 байт/сек ]  
  

Свобода слова (ICTV) | Выпуски за июль (+2 июля) [2018, Политическое ток-шоу, IPTVRip]

Сообщение Nakazhu » 04 июл 2018, 23:08

Свобода слова | Выпуски за январь-июнь 2018 г.

4 июля в 22:51 добавлен выпуск за 2 июля,
перекачайте торрент-файл, пожалуйста.
Все выпуски
Год выпуска: 2018
Страна: Украина
Жанр: Политическое ток-шоу
Ведущий: Вадим Карпьяк
Язык: Русский, украинский
Описание:
"Свобода слова" - главное общественно-политическое ток-шоу на канале ICTV. Премьера программы состоялась 14 сентября 2001 в России на телеканале НТВ, как авторская программа Савика Шустера. В эфир вышло более 100 выпусков программы. "Свобода слова" дважды номинировалась на премию Национальной Телевизионной Академии России. В 2004 году стала победителем ТЭФИ в номинации ток-шоу.
С сентября 2005 года "Свобода слова" Савика Шустера выходит в Украине. В марте 2006 года программа отмечена высшей наградой в области журналистики "Золотое перо" в номинации "Лучшая политическая телевизионная программа". Спустя полгода "Свобода слова" становится обладателем премии "Телетриумф", побеждая в номинации "Ток-шоу".
С августа 2007 г. по июль 2016 г. программу вёл Андрей Куликов. С августа 2016 года – Вадим Карпьяк. "Свобода слова" выходит в прямом эфире каждый понедельник в 22:30.
Содержание релиза:
Кто и для чего хочет изменить украинскую Конституцию? Надо ли в Конституции закреплять курс Украины в ЕС и НАТО?
Гости программы:
Ирина Геращенко, первый заместитель Председателя Верховной Рады Украины;
Сергей Соболев, народный депутат, заместитель председателя фракция ВО «Батькивщина»;
Людмила Денисова, Уполномоченный Верховной Рады по правам человека;
Олег Березюк, народный депутат, председатель фракции «Объединение "Самопомощь"».
Продолжительность: 1:07:15

Качество: IPTVRip _ Сэмпл
Формат: AVI
Видео кодек: XviD _ Аудио кодек: MP3
Видео: 720x400 (16:9), 25 fps, XviD build 50, ~ 800 kbps, 0.110 bit/pixel
Аудио: 48,0 kHz, MPEG Layer 3, 2 ch, 192 kbps
Код:
Код: Выделить всё
General
Complete name               : ...\Svoboda.Slova.(ICTV.2018)\07.02_Svoboda.slova.(IPTVRip.AleMak).avi
Format                      : AVI
Format/Info                 : Audio Video Interleave
File size                   : 452 MiB
Duration                    : 1 h 7 min
Overall bit rate            : 939 kb/s
Writing application         : VirtualDubMod 1.5.4.1 (build 2178/release)
Writing library             : VirtualDubMod build 2178/release
Video
ID                          : 0
Format                      : MPEG-4 Visual
Format profile              : Advanced Simple@L5
Format settings, BVOP       : 1
Format settings, QPel       : No
Format settings, GMC        : No warppoints
Format settings, Matrix     : Custom
Codec ID                    : XVID
Codec ID/Hint               : XviD
Duration                    : 1 h 7 min
Bit rate                    : 740 kb/s
Width                       : 720 pixels
Height                      : 400 pixels
Display aspect ratio        : 16:9
Frame rate                  : 25.000 FPS
Color space                 : YUV
Chroma subsampling          : 4:2:0
Bit depth                   : 8 bits
Scan type                   : Progressive
Compression mode            : Lossy
Bits/(Pixel*Frame)          : 0.103
Stream size                 : 356 MiB (79%)
Writing library             : XviD 1.2.1 (UTC 2008-12-04)
Audio
ID                          : 1
Format                      : MPEG Audio
Format version              : Version 1
Format profile              : Layer 3
Mode                        : Joint stereo
Mode extension              : MS Stereo
Codec ID                    : 55
Codec ID/Hint               : MP3
Duration                    : 1 h 7 min
Bit rate mode               : Constant
Bit rate                    : 192 kb/s
Channel(s)                  : 2 channels
Sampling rate               : 48.0 kHz
Compression mode            : Lossy
Stream size                 : 92.4 MiB (20%)
Alignment                   : Aligned on interleaves
Interleave, duration        : 80  ms (2.00 video frames)
Interleave, preload duration: 504  ms
Writing library             : LAME3.98r
Encoding settings           : -m j -V 4 -q 2 -lowpass 18.6 -b 192


Украинские политические ток-шоу в прямом эфире:
Шустер live (ТРК "Украина", "Первый национальный")
Свобода слова (ICTV)
Большая Политика (ИНТЕР)
Справедливость (ИНТЕР)
РесПублика с Анной Безулик (5 канал)
Вечер с Николаем Княжицким (ТВi)
Черное и белое (TVi)
При каждом добавлении создаётся новый торрент. Чтобы начать докачку нового выпуска, пользователям необходимо сделать следующее:
● остановить скачивание;
● удалить старый торрент у себя из клиента (старые выпуски удалять не надо);
● скачать новый торрент и запустить его у себя в клиенте вместо старого, при этом указать клиенту путь в старую папку, куда и должно происходить скачивание новых выпусков;
● ваш клиент при запуске должен произвести хеширование (проверку) старой папки (если не производит сам - помогите ему сделать это), и будет докачивать только те выпуски, которых у вас ещё нет. Старые выпуски при этом не удаляются, а продолжают раздаваться!
● Eсли вы уже удалили старые выпуски, то предотвратить повторную закачку старых выпусков можно, отжав галочку в соответсвующих местах при запуске нового торрента.
Как закачать отдельный файл из торрента или докачать ранее пропущенные файлы торрента!
----При закачке сериалов или видео-сборников рекомендую такую схему:
--выставляем приоритет первого выпуска Высокий, следующих 1-2-х
--выпусков - Нормальный, следующих 1-2-х выпусков - Низкий,
--приоритет остальных пока ставим - Не загружать (пропущен).
----По мере выкачки первых выпусков меняем приоритеты последующих.
--В итоге довольно скоро начинаем смотреть первые выпуски,
--а остальные пока качаются.
-----
----И второй способ, более радикальный:
-- Как заставить utorrent скачивать части последовательно (для online просмотра)
Сам этим давно пользуюсь - работает хорошо: обычно фильмы, которым скачиваться час-полтора, начинаю смотреть уже через 20-30 минут!
Нужно только 1 раз аккуратно проделать то, что там написано (занимает 10 минут).
Если на раздаче долгое время нет раздающих - пишите мне в личку
 
Не забывайте говорить Спасибо. Не уходите с раздачи!   
Торрент: Зарегистрирован [04 июл 2018, 19:51] Для скачивания .torrent
необходима регистрация
Или скачать с помощью
MediaGet
Статус:
Проверен
 
.torrent скачан: 0 раз
Хэш: 5760d6711381914d9b326c0e556bd26451fb948b
Размер: 451.79 МБ (473 733 120 байт)
Стать Автором раздачи
 
 
Раздал: 0 байт
Скачал: 0 байт
Ратио: Inf.
Сообщения: 486559
Зарегистрирован: 17 апр 2014, 13:57


  • Похожие торренты
    Ответы
    Просмотры
    Последнее сообщение

Вернуться в Документальные фильмы и телепередачи

Ресурс не предоставляет электронные версии произведений, а занимается лишь коллекционированием и каталогизацией ссылок, присылаемых и публикуемых на форуме нашими читателями. Если вы являетесь правообладателем какого-либо представленного материала и не желаете чтобы ссылка на него находилась в нашем каталоге, свяжитесь с нами и мы незамедлительно удалим её. Файлы для обмена на трекере предоставлены пользователями сайта, и администрация не несёт ответственности за их содержание. Просьба не заливать файлы, защищенные авторскими правами, а также файлы нелегального содержания!
cron