Просто Калашников (Андрей Никишин) [2013, биографический, SATRip]

 
 Статистика раздачи 
Размер: 594.29 МБ   |  Зарегистрирован: 04 июл 2018, 19:17   |   .torrent скачан: 0 раз
Сидеров: 1  [ 0 байт/сек ]     Личеров: 0  [ 0 байт/сек ]  
  

Просто Калашников (Андрей Никишин) [2013, биографический, SATRip]

Сообщение Nakazhu » 04 июл 2018, 22:22

Просто Калашников
Дата/Год выпуска: 2013
Страна
: Россия
Жанр: биографический
Продолжительность: 00:53:56
Перевод: Не требуется
Русские субтитры: нет
Оригинальная аудиодорожка: русский
Режиссер: Андрей Никишин
Телеканал: Россия 24
Описание: Как живет сегодня известный конструктор стрелкового оружия, доктор технических наук, лауреат Сталинской, Ленинской и Государственных премий, член Союза писателей России; о чем болит душа 90-летнего генерала, что думает он о дне сегодняшнем и что вспоминает из прошлого, какие тайны хранит и о чем мечтает - об этом и о многом другом рассказывается в фильме.
качество: SATRip
формат: AVI
Видео: MPEG4, XviD, 704x528 (4:3), 25.000 fps, 1 399 Kbps (0.151 bit/pixel)
Аудио: MP3, 48.0 KHz, 2 ch, 128 Kbps, CBR
Код: Выделить всё
General
Complete name                            : G:\Просто Калашников.avi
Format                                   : AVI
Format/Info                              : Audio Video Interleave
File size                                : 594 MiB
Duration                                 : 53mn 56s
Overall bit rate                         : 1 540 Kbps
Writing library                          : TMPGEnc 4.0 XPress Version. 4.7.7.307
Video
ID                                       : 0
Format                                   : MPEG-4 Visual
Format profile                           : Simple@L1
Format settings, BVOP                    : No
Format settings, QPel                    : No
Format settings, GMC                     : No warppoints
Format settings, Matrix                  : Default (H.263)
Codec ID                                 : XVID
Codec ID/Hint                            : XviD
Duration                                 : 53mn 56s
Bit rate                                 : 1 399 Kbps
Width                                    : 704 pixels
Height                                   : 528 pixels
Display aspect ratio                     : 4:3
Frame rate                               : 25.000 fps
Color space                              : YUV
Chroma subsampling                       : 4:2:0
Bit depth                                : 8 bits
Scan type                                : Progressive
Compression mode                         : Lossy
Bits/(Pixel*Frame)                       : 0.151
Stream size                              : 540 MiB (91%)
Writing library                          : Lavc52.92.0
Audio
ID                                       : 1
Format                                   : MPEG Audio
Format version                           : Version 1
Format profile                           : Layer 3
Mode                                     : Joint stereo
Mode extension                           : MS Stereo
Codec ID                                 : 55
Codec ID/Hint                            : MP3
Duration                                 : 53mn 56s
Bit rate mode                            : Constant
Bit rate                                 : 128 Kbps
Channel(s)                               : 2 channels
Sampling rate                            : 48.0 KHz
Compression mode                         : Lossy
Stream size                              : 49.4 MiB (8%)
Alignment                                : Aligned on interleaves
Interleave, duration                     : 40 ms (1.00 video frame)
Interleave, preload duration             : 384 ms
 
Не забывайте говорить Спасибо. Не уходите с раздачи!   
Торрент: Зарегистрирован [04 июл 2018, 19:17] Скачать торрент
Скачать торрент
[ Размер 12.07 КБ / Просмотров 3 ]
Статус:
Проверен
 
.torrent скачан: 0 раз
Хэш: 9a7182cb1a1e9bf20bf74096b44bd528a1b6f4be
Размер: 594.29 МБ (623 163 382 байт)
Стать Автором раздачи
 
 
Раздал: 0 байт
Скачал: 0 байт
Ратио: Inf.
Сообщения: 487468
Зарегистрирован: 17 апр 2014, 13:57


  • Похожие торренты
    Ответы
    Просмотры
    Последнее сообщение

Вернуться в Документальные фильмы и телепередачи

Ресурс не предоставляет электронные версии произведений, а занимается лишь коллекционированием и каталогизацией ссылок, присылаемых и публикуемых на форуме нашими читателями. Если вы являетесь правообладателем какого-либо представленного материала и не желаете чтобы ссылка на него находилась в нашем каталоге, свяжитесь с нами и мы незамедлительно удалим её. Файлы для обмена на трекере предоставлены пользователями сайта, и администрация не несёт ответственности за их содержание. Просьба не заливать файлы, защищенные авторскими правами, а также файлы нелегального содержания!
cron