Драка в блоке 99 / Brawl in Cell Block 99 (С. Крэйг Залер) [2017, США, Боевик, триллер, криминал, BDRemux 1080p] Dub + DVO (RecentFilms) + AVO (Вартан Дохалов) + AVO (Вартан Дохалов) + Sub Rus + Original Eng

 
 Статистика раздачи 
Размер: 34.9 ГБ   |  Зарегистрирован: 04 июл 2018, 12:35   |   .torrent скачан: 0 раз
Сидеров: 1  [ 0 байт/сек ]     Личеров: 0  [ 0 байт/сек ]  
  

Драка в блоке 99 / Brawl in Cell Block 99 (С. Крэйг Залер) [2017, США, Боевик, триллер, криминал, BDRemux 1080p] Dub + DVO (RecentFilms) + AVO (Вартан Дохалов) + AVO (Вартан Дохалов) + Sub Rus + Original Eng

Сообщение Nakazhu » 04 июл 2018, 15:40

Драка в блоке 99 / Brawl in Cell Block 99
Страна: США
Режиссер: С. Крэйг Залер
Студия: Assemble Media, Caliber Media Company, Cinestate, Realmbuilders Productio, XYZ Films
Жанр: Боевик, триллер, криминал
Год выпуска: 2017
Продолжительность: 02:12:24
Перевод: Профессиональный (дублированный)
Перевод 2: Любительский (двухголосый закадровый) RecentFilms
Перевод 3: Авторский (одноголосый закадровый) Вартан Дохалов
Перевод 4: Авторский (одноголосый закадровый) Вартан Дохалов
Оригинальная аудиодорожка: английский
Субтитры: Русские, английские
В ролях: Винс Вон, Дженнифер Карпентер, Том Гайри, Дон Джонсон, Марк Блукас, Удо Кир, Мустафа Жакир, Гено Седжерс, Роб Морган, Фред Меламед
Описание: Бывший боксер и наркодилер Брэдли Томас пытался завязать с преступным прошлым, но оно затащило его обратно. Он с подельниками попался с поличным и отправился в тюрьму на 7 лет. И всё это так не вовремя, жена беременна долгожданной дочкой, а тут ещё на свиданку заявляется непонятный тип и, шантажируя нерожденным ребенком, велит Брэдли убить заключённого в блоке 99 тюрьмы строгого режима.
Сэмпл: http://multi-up.com/1203011
Тип релиза: BDRemux 1080p
Контейнер: MKV
Видео: MPEG4 Video (H264), 1920x1080, 23.976 Кадр/с
Аудио: Русский AC3 5.1 384 kbps - Дубляж (R5)
Аудио 2: Русский DTS 5.1 1509 kbps - Любительский двухголосый (RecentFilms)
Аудио 3: Русский DTS-HD , 5.1 / 48 kHz / 3229 kbps - Авторский (Вартан Дохалов)
Аудио 4: Русский AC3 5.1 640 kbps - Авторский (Вартан Дохалов)
Формат субтитров: softsub (SRT)
Код: Выделить всё
General
Unique ID                      : 228001423941975764635832359190657529841 (0xAB877A1AEBB61015AB2AECAD6E3877F1)
Complete name                  : D:\Синемания\Премьеры\Драка в блоке 99. BDRemux..mkv
Format                         : Matroska
Format version                 : Version 4 / Version 2
File size                      : 34.9 GiB
Duration                       : 2h 12mn
Overall bit rate mode          : Variable
Overall bit rate               : 37.7 Mbps
Movie name                     : Драка в блоке 99. BDRemux.thx:SPOMOPS
Encoded date                   : UTC 2018-05-04 20:01:50
Writing application            : mkvmerge v8.3.0 ('Over the Horizon') 64bit
Writing library                : libebml v1.3.1 + libmatroska v1.4.2
DURATION                       : 02:12:23.392000000
NUMBER_OF_FRAMES               : 248231
NUMBER_OF_BYTES                : 635471360
_STATISTICS_WRITING_APP        : mkvmerge v8.3.0 ('Over the Horizon') 64bit
_STATISTICS_WRITING_DATE_UTC   : 2018-05-04 20:01:50
_STATISTICS_TAGS               : BPS DURATION NUMBER_OF_FRAMES NUMBER_OF_BYTES
Video
ID                             : 1
Format                         : AVC
Format/Info                    : Advanced Video Codec
Format profile                 : High@L4.1
Format settings, CABAC         : Yes
Format settings, ReFrames      : 4 frames
Codec ID                       : V_MPEG4/ISO/AVC
Duration                       : 2h 12mn
Bit rate mode                  : Variable
Maximum bit rate               : 36.0 Mbps
Width                          : 1 920 pixels
Height                         : 1 080 pixels
Display aspect ratio           : 16:9
Frame rate mode                : Constant
Frame rate                     : 23.976 fps
Color space                    : YUV
Chroma subsampling             : 4:2:0
Bit depth                      : 8 bits
Scan type                      : Progressive
Language                       : English
Default                        : Yes
Forced                         : No
Audio #1
ID                             : 2
Format                         : AC-3
Format/Info                    : Audio Coding 3
Mode extension                 : CM (complete main)
Format settings, Endianness    : Big
Codec ID                       : A_AC3
Duration                       : 2h 12mn
Bit rate mode                  : Constant
Bit rate                       : 384 Kbps
Channel(s)                     : 6 channels
Channel positions              : Front: L C R, Side: L R, LFE
Sampling rate                  : 48.0 KHz
Bit depth                      : 16 bits
Compression mode               : Lossy
Stream size                    : 364 MiB (1%)
Title                          : Русский ас3 - Дубляж
Language                       : Russian
Default                        : Yes
Forced                         : No
Audio #2
ID                             : 3
Format                         : DTS
Format/Info                    : Digital Theater Systems
Mode                           : 16
Format settings, Endianness    : Big
Codec ID                       : A_DTS
Duration                       : 2h 12mn
Bit rate mode                  : Constant
Bit rate                       : 1 509 Kbps
Channel(s)                     : 6 channels
Channel positions              : Front: L C R, Side: L R, LFE
Sampling rate                  : 48.0 KHz
Bit depth                      : 24 bits
Compression mode               : Lossy
Stream size                    : 1.40 GiB (4%)
Title                          : Русский DTS - ПМ (RecentFilms)
Language                       : Russian
Default                        : No
Forced                         : No
Audio #3
ID                             : 4
Format                         : DTS
Format/Info                    : Digital Theater Systems
Format profile                 : MA / Core
Mode                           : 16
Format settings, Endianness    : Big
Codec ID                       : A_DTS
Duration                       : 2h 12mn
Bit rate mode                  : Variable
Bit rate                       : Unknown / 1 509 Kbps
Channel(s)                     : 6 channels
Channel positions              : Front: L C R, Side: L R, LFE
Sampling rate                  : 48.0 KHz
Bit depth                      : 24 bits
Compression mode               : Lossless / Lossy
Title                          : Русский DTS-HD MA - АП (Дохалов)
Language                       : Russian
Default                        : No
Forced                         : No
Audio #4
ID                             : 5
Format                         : AC-3
Format/Info                    : Audio Coding 3
Mode extension                 : CM (complete main)
Format settings, Endianness    : Big
Codec ID                       : A_AC3
Duration                       : 2h 12mn
Bit rate mode                  : Constant
Bit rate                       : 640 Kbps
Channel(s)                     : 6 channels
Channel positions              : Front: L C R, Side: L R, LFE
Sampling rate                  : 48.0 KHz
Bit depth                      : 16 bits
Compression mode               : Lossy
Stream size                    : 606 MiB (2%)
Title                          : Русский ас3 - АП (Дохалов)
Language                       : Russian
Default                        : No
Forced                         : No
Audio #5
ID                             : 6
Format                         : DTS
Format/Info                    : Digital Theater Systems
Format profile                 : MA / Core
Mode                           : 16
Format settings, Endianness    : Big
Codec ID                       : A_DTS
Duration                       : 2h 12mn
Bit rate mode                  : Variable
Bit rate                       : Unknown / 1 509 Kbps
Channel(s)                     : 6 channels
Channel positions              : Front: L C R, Side: L R, LFE
Sampling rate                  : 48.0 KHz
Bit depth                      : 24 bits
Compression mode               : Lossless / Lossy
Title                          : Английский DTS-HD MA - Оригинал
Language                       : English
Default                        : No
Forced                         : No
Text #1
ID                             : 7
Format                         : UTF-8
Codec ID                       : S_TEXT/UTF8
Codec ID/Info                  : UTF-8 Plain Text
Title                          : Русские
Language                       : Russian
Default                        : No
Forced                         : No
Text #2
ID                             : 8
Format                         : UTF-8
Codec ID                       : S_TEXT/UTF8
Codec ID/Info                  : UTF-8 Plain Text
Title                          : Английские
Language                       : English
Default                        : No
Forced                         : No
Text #3
ID                             : 9
Format                         : UTF-8
Codec ID                       : S_TEXT/UTF8
Codec ID/Info                  : UTF-8 Plain Text
Title                          : Английские (SDH)
Language                       : English
Default                        : No
Forced                         : No
Menu
00:00:00.000                   : :Chapter 01
00:13:43.905                   : :Chapter 02
00:27:24.684                   : :Chapter 03
00:44:54.608                   : :Chapter 04
01:01:18.383                   : :Chapter 05
01:10:07.244                   : :Chapter 06
01:20:00.587                   : :Chapter 07
01:28:07.282                   : :Chapter 08
01:58:05.244                   : :Chapter 09
02:04:53.944                   : :Chapter 10
02:12:23.352                   : :Chapter 11
 
Не забывайте говорить Спасибо. Не уходите с раздачи!   
Торрент: Зарегистрирован [04 июл 2018, 12:35] Для скачивания .torrent
необходима регистрация
Или скачать с помощью
MediaGet
Статус:
Проверен
 
.torrent скачан: 0 раз
Хэш: 9667aa742e7ae3f2e6f1d007fe70e77cdfbca11a
Размер: 34.9 ГБ (37 469 364 739 байт)
Стать Автором раздачи
 
 
Раздал: 0 байт
Скачал: 0 байт
Ратио: Inf.
Сообщения: 487468
Зарегистрирован: 17 апр 2014, 13:57


  • Похожие торренты
    Ответы
    Просмотры
    Последнее сообщение

Вернуться в HD Video на модерации

Ресурс не предоставляет электронные версии произведений, а занимается лишь коллекционированием и каталогизацией ссылок, присылаемых и публикуемых на форуме нашими читателями. Если вы являетесь правообладателем какого-либо представленного материала и не желаете чтобы ссылка на него находилась в нашем каталоге, свяжитесь с нами и мы незамедлительно удалим её. Файлы для обмена на трекере предоставлены пользователями сайта, и администрация не несёт ответственности за их содержание. Просьба не заливать файлы, защищенные авторскими правами, а также файлы нелегального содержания!
cron