Одна строка (1960) SATRip от New-Team

 
 Статистика раздачи 
Размер: 1.09 ГБ   |  Зарегистрирован: 04 июл 2018, 13:03   |   .torrent скачан: 0 раз
Сидеров: 1  [ 0 байт/сек ]     Личеров: 0  [ 0 байт/сек ]  
  

Одна строка (1960) SATRip от New-Team

Сообщение graf_t » 04 июл 2018, 13:37

Страна: СССР
Производство: Свердловская киностудия

Жанр: драма, мелодрама
Год выпуска: 1960
Продолжительность: 01:35:01

Перевод: Не требуется
Cубтитры: нет
Оригинальная аудиодорожка: русский

Режиссер: Иван Правов

В ролях:
Анатолий Федоринов, Игорь Белозеров, Г. Беленькая, В. Васянин, Лидия Старокольцева, Генрих Билль, Виктор Чекмарёв, Григорий Гецов, Мария Некрасова, Геннадий Веретенников, Ф. Горяев...
Об актёрах подробней

Описание:
На севере Урала началось строительство химкомбината. Начальник стройки Пётр Мусатов назначает заместителем Антона Китаева (Анатолий Федоринов) - мужа своей сестры, человека прямого и честного, бывшего фронтовика. Антон вскоре понимает, что Пётр - типичный карьерист, преследующий только корыстные цели. Китаев выступает с резкой критикой руководства. В результате у него происходит разрыв с женой, которая во всём поддерживает брата. К тому же к противостоянию в работе добавляется и соперничество в любви - Пётр и Антон влюблены в одну женщину...





Исходник: DVB
Качество видео: SATRip
Формат видео: AVI

Видео: 688x512 (4:3), 25,000 кадров/сек, XviD ~ 1440 kbps avg, 0.163 bit/pixel
Аудио: 48 kHz, Dolby Digital AC3 2.0, 192 kbps

Раздача от:
Общее
Полное имя : Odna.stroka.1960.SATRip_[New-team]_by_AVP_Studio.avi
Формат : AVI
Формат/Информация : Audio Video Interleave
Размер файла : 1,09 Гбайт
Продолжительность : 1 ч. 35 м.
Общий поток : 1641 Кбит/сек
Программа кодирования : VirtualDubMod 1.5.10.3 | www.virtualdub-fr.org || (build 2550/release)
Библиотека кодирования : VirtualDubMod build 2550/release

Видео
Идентификатор : 0
Формат : MPEG-4 Visual
Профиль формата : Advanced Simple@L5
Настройки формата : BVOP1 / Custom Matrix
Параметр BVOP формата : 1
Параметр QPel формата : Нет
Параметр GMC формата : Без точки перехода
Параметр матрицы формата : Выборочная
Идентификатор кодека : XVID
Идентификатор кодека/Подсказка : XviD
Продолжительность : 1 ч. 35 м.
Битрейт : 1440 Кбит/сек
Ширина : 688 пикселей
Высота : 512 пикселей
Соотношение сторон : 4:3
Частота кадров : 25,000 кадров/сек
Цветовое пространство : YUV
Субдискретизация насыщенности : 4:2:0
Битовая глубина : 8 бит
Тип развёртки : Прогрессивная
Метод сжатия : С потерями
Бит/(Пиксели*Кадры) : 0.163
Размер потока : 978 Мбайт (88%)
Библиотека кодирования : XviD 73

Аудио
Идентификатор : 1
Формат : AC-3
Формат/Информация : Audio Coding 3
Идентификатор кодека : 2000
Продолжительность : 1 ч. 35 м.
Вид битрейта : Постоянный
Битрейт : 192 Кбит/сек
Каналы : 2 канала
Расположение каналов : Front: L R
Частота : 48,0 КГц
Частота кадров : 31,250 кадров/сек (1536 SPF)
Битовая глубина : 16 бит
Метод сжатия : С потерями
Размер потока : 130 Мбайт (12%)
Выравнивание : Разделение по промежуткам
Продолжительность промежутка : 40 мс. (1,00 видеокадр)
Время предзагрузки промежутка : 500 мс


 
Не забывайте говорить Спасибо. Не уходите с раздачи!   
Торрент: Зарегистрирован [04 июл 2018, 13:03] Для скачивания .torrent
необходима регистрация
Или скачать с помощью
MediaGet
Статус:
Проверен
 
.torrent скачан: 0 раз
Хэш: 275fdf41ddba34a41b0804c2d851344439a5a21f
Размер: 1.09 ГБ (1 169 670 144 байт)
Стать Автором раздачи
 
 
Раздал: 100 ГБ
Скачал: 0 байт
Ратио: Seed.
Сообщения: 57437
Зарегистрирован: 31 мар 2015, 18:04


  • Похожие торренты
    Ответы
    Просмотры
    Последнее сообщение

Вернуться в Кино СССР, Советской России, Российской республики (1917-1991)

Ресурс не предоставляет электронные версии произведений, а занимается лишь коллекционированием и каталогизацией ссылок, присылаемых и публикуемых на форуме нашими читателями. Если вы являетесь правообладателем какого-либо представленного материала и не желаете чтобы ссылка на него находилась в нашем каталоге, свяжитесь с нами и мы незамедлительно удалим её. Файлы для обмена на трекере предоставлены пользователями сайта, и администрация не несёт ответственности за их содержание. Просьба не заливать файлы, защищенные авторскими правами, а также файлы нелегального содержания!
cron