(Bossanova, MPB) [CD] Gal Costa e Caetano Veloso - Domingo (1967) [2018, Remaster] - 1967 / 2018, FLAC (image+.cue), lossless

 
 Статистика раздачи 
Размер: 211.16 МБ   |  Зарегистрирован: 04 июл 2018, 06:48   |   .torrent скачан: 0 раз
Сидеров: 1  [ 0 байт/сек ]     Личеров: 0  [ 0 байт/сек ]  
  

(Bossanova, MPB) [CD] Gal Costa e Caetano Veloso - Domingo (1967) [2018, Remaster] - 1967 / 2018, FLAC (image+.cue), lossless

Сообщение Nakazhu » 04 июл 2018, 09:58

Gal Costa e Caetano Veloso / Domingo (1967) [2018 Remaster]
Жанр: Bossanova, MPB
Носитель: CD
Страна-производитель диска (релиза): Germany
Год издания: 1967 / 2018
Издатель (лейбл): Philips / Olaf Thulemann Productions
Номер по каталогу: OTP 264E
Страна исполнителя (группы): República Federativa do Brasil
Аудиокодек: FLAC (*.flac)
Тип рипа: image+.cue
Битрейт аудио: lossless
Продолжительность: 30:20
Источник (релизер): Olaf Thulemann / Denomoid
Наличие сканов в содержимом раздачи: да
Треклист:
01. Coração Vagabundo (2:24)
02. Onde Eu Nasci Passa Um Rio (1:56)
03. Avarandado (2:39)
04. Um Dia (3:11)
05. Domingo (1:24)
06. Nenhuma Dor (1:33)
07. Candeias (3:11)
08. Remelexo (1:53)
09. Minha Senhora (4:13)
10. Quem Me Dera (3:23)
11. Maria Joana (1:43)
12. Zabelê (2:48)
Код: Выделить всё
Exact Audio Copy V0.99 prebeta 5 from 4. May 2009
EAC extraction logfile from 3. July 2018, 17:28
Gal Costa e Caetano Veloso / DOMINGO (1967) [2018 Remaster]
Used drive  : ASUS    DRW-22B1LT   Adapter: 3  ID: 0
Read mode               : Secure
Utilize accurate stream : Yes
Defeat audio cache      : Yes
Make use of C2 pointers : No
Read offset correction                      : 6
Overread into Lead-In and Lead-Out          : No
Fill up missing offset samples with silence : Yes
Delete leading and trailing silent blocks   : No
Null samples used in CRC calculations       : Yes
Used interface                              : Installed external ASPI interface
Used output format : Internal WAV Routines
Sample format      : 44.100 Hz; 16 Bit; Stereo
TOC of the extracted CD
     Track |   Start  |  Length  | Start sector | End sector
    ---------------------------------------------------------
        1  |  0:00.00 |  2:24.00 |         0    |    10799
        2  |  2:24.00 |  1:56.37 |     10800    |    19536
        3  |  4:20.37 |  2:39.00 |     19537    |    31461
        4  |  6:59.37 |  3:11.00 |     31462    |    45786
        5  | 10:10.37 |  1:24.30 |     45787    |    52116
        6  | 11:34.67 |  1:32.30 |     52117    |    59046
        7  | 13:07.22 |  3:11.38 |     59047    |    73409
        8  | 16:18.60 |  1:52.37 |     73410    |    81846
        9  | 18:11.22 |  4:13.00 |     81847    |   100821
       10  | 22:24.22 |  3:23.38 |    100822    |   116084
       11  | 25:47.60 |  1:42.37 |    116085    |   123771
       12  | 27:30.22 |  2:48.38 |    123772    |   136409
Range status and errors
Selected range
     Filename G:\ini003\Gal Costa e Caetano Veloso - DOMINGO (1967) [2018 Remaster].wav
     Peak level 95.7 %
     Range quality 100.0 %
     Test CRC 42998418
     Copy CRC 42998418
     Copy OK
No errors occurred
End of status report
Код: Выделить всё
REM GENRE "Bossanova, MPB"
REM DATE 1967
REM DISCID A1071A0C
REM COMMENT "ExactAudioCopy v0.99pb5"
PERFORMER "Gal Costa e Caetano Veloso"
TITLE "DOMINGO (1967) [2018 Remaster]"
FILE "Gal Costa e Caetano Veloso - DOMINGO (1967) [2018 Remaster].wav" WAVE
  TRACK 01 AUDIO
    TITLE "Coracao Vagabundo"
    PERFORMER "Gal Costa e Caetano Veloso"
    INDEX 01 00:00:00
  TRACK 02 AUDIO
    TITLE "Onde Eu Nasci Passa Um Rio"
    PERFORMER "Gal Costa e Caetano Veloso"
    INDEX 01 02:24:00
  TRACK 03 AUDIO
    TITLE "Avarandado"
    PERFORMER "Gal Costa e Caetano Veloso"
    INDEX 01 04:20:37
  TRACK 04 AUDIO
    TITLE "Um Dia"
    PERFORMER "Gal Costa e Caetano Veloso"
    INDEX 01 06:59:37
  TRACK 05 AUDIO
    TITLE "Domingo"
    PERFORMER "Gal Costa e Caetano Veloso"
    INDEX 01 10:10:37
  TRACK 06 AUDIO
    TITLE "Nenhuma Dor"
    PERFORMER "Gal Costa e Caetano Veloso"
    INDEX 01 11:34:67
  TRACK 07 AUDIO
    TITLE "Candeias"
    PERFORMER "Gal Costa e Caetano Veloso"
    INDEX 01 13:07:22
  TRACK 08 AUDIO
    TITLE "Remelexo"
    PERFORMER "Gal Costa e Caetano Veloso"
    INDEX 01 16:18:60
  TRACK 09 AUDIO
    TITLE "Minha Senhora"
    PERFORMER "Gal Costa e Caetano Veloso"
    INDEX 01 18:11:22
  TRACK 10 AUDIO
    TITLE "Quem Me Dera"
    PERFORMER "Gal Costa e Caetano Veloso"
    INDEX 01 22:24:22
  TRACK 11 AUDIO
    TITLE "Maria Joana"
    PERFORMER "Gal Costa e Caetano Veloso"
    INDEX 01 25:47:60
  TRACK 12 AUDIO
    TITLE "Zabele"
    PERFORMER "Gal Costa e Caetano Veloso"
    INDEX 01 27:30:22
Код: Выделить всё
-----------------------
DON'T MODIFY THIS FILE
-----------------------
PERFORMER: auCDtect Task Manager, ver. 1.5.1RC6 build 1.5.1.7
Copyright (c) 2008-2010 y-soft. All rights reserved
[url=http://y-soft.org]http://y-soft.org[/url]
ANALYZER: auCDtect: CD records authenticity detector, version 0.8.2
Copyright (c) 2004 Oleg Berngardt. All rights reserved.
Copyright (c) 2004 Alexander Djourik. All rights reserved.
FILE: Gal Costa e Caetano Veloso - DOMINGO (1967) [2018 Remaster].wav
  Size: 320836364 Hash: E95B76A574815F0BF8934F096A10B0D1 Accuracy: -m0
  Conclusion: CDDA 100%
  Signature: 10056795E857EDF80E00D4F26D3B26D31BC984D7
Доп. информация: https://en.wikipedia.org/wiki/Domingo_(Gal_Costa_and_Caetano_Veloso_album)
Gravado nos a estúdios Philips, Rio de Janeiro, 1967
Direção de Produção, Violão: Dori Caymmi
℗ & © 1967 Philips P 765.007 P
© 2018 Olaf Thulemann Productions
CD Catalogue No: OTP 264E
Gal Costa – Vocals
Caetano Veloso - Vocals
Dori Caymmi - acoustic guitar, arrangement (track 1, 2)
Francis Hime - arrangement (tracks 3, 4)
Roberto Menescal - arrangement (track 5)
 
Не забывайте говорить Спасибо. Не уходите с раздачи!   
Торрент: Зарегистрирован [04 июл 2018, 06:48] Скачать торрент
Скачать торрент
[ Размер 17.66 КБ / Просмотров 12 ]
Статус:
Проверен
 
.torrent скачан: 0 раз
Хэш: ad2a3dc156ba547998734fabbbdd9fe3a6b0c3ec
Размер: 211.16 МБ (221 418 813 байт)
Стать Автором раздачи
 
 
Раздал: 0 байт
Скачал: 0 байт
Ратио: Inf.
Сообщения: 487468
Зарегистрирован: 17 апр 2014, 13:57


  • Похожие торренты
    Ответы
    Просмотры
    Последнее сообщение

Вернуться в World Fusion, Ethnic Jazz (lossless)

Ресурс не предоставляет электронные версии произведений, а занимается лишь коллекционированием и каталогизацией ссылок, присылаемых и публикуемых на форуме нашими читателями. Если вы являетесь правообладателем какого-либо представленного материала и не желаете чтобы ссылка на него находилась в нашем каталоге, свяжитесь с нами и мы незамедлительно удалим её. Файлы для обмена на трекере предоставлены пользователями сайта, и администрация не несёт ответственности за их содержание. Просьба не заливать файлы, защищенные авторскими правами, а также файлы нелегального содержания!
cron