Два хвоста (Наталья Нилова, Виктор Азеев) [2018, Россия, мультфильм, приключения, семейный, WEB-DL 1080p]

 
 Статистика раздачи 
Размер: 2.85 ГБ   |  Зарегистрирован: 03 июл 2018, 16:53   |   .torrent скачан: 0 раз
Сидеров: 1  [ 0 байт/сек ]     Личеров: 0  [ 0 байт/сек ]  
  

Два хвоста (Наталья Нилова, Виктор Азеев) [2018, Россия, мультфильм, приключения, семейный, WEB-DL 1080p]

Сообщение Nakazhu » 03 июл 2018, 20:03

Два хвоста
Страна: Россия
Жанр: мультфильм, детский
Продолжительность: 01:14:30
Год выпуска: 2018
Перевод: Не требуется
Субтитры: нет
Режиссер: Наталья Нилова, Виктор Азеев
Роли озвучивали: Сергей Бурунов, Диомид Виноградов, Ирина Киреева

Описание: История о невероятных приключениях двух друзей — Кота Макса и Бобра Боба. Трудно найти более непохожих друг на друга героев! «Правильный» Боб стремится к тишине и покою, а непоседа Макс хочет стать знаменитым и прославиться на весь мир. И, тем не менее, именно этой парочке предстоит отразить нашествие инопланетных охотников за животными и прославиться на всю галактику! Вас ждут шутки, аттракционы и погони на летающих тарелках. Ключ на старт! Полетели!
Кинопоиск
Sample
Качество: WEB-DL 1080p - iTunes
Формат: MKV
Видео: MPEG4 AVC Video, H264, 16:9, 1920x1080, 24 fps, 4989 kbps, 0.100 bit/pixel
Аудио: Russian (AC3, 6 ch, 384 kbps, 16 bits, 48.0 KHz)
[pre]General
Unique ID : 214271973306770570673267157064889617036 (0xA13347ED386879BFAE12A0A2F01F4A8C)
Complete name : D:\Два хвоста 2018 WEB-DL 1080p.mkv
Format : Matroska
Format version : Version 4 / Version 2
File size : 2.85 GiB
Duration : 1 h 14 min
Overall bit rate : 5 482 kb/s
Encoded date : UTC 2018-07-03 16:44:30
Writing application : mkvmerge v6.1.0 ('Old Devil') built on Mar 2 2013 14:32:37
Writing library : libebml v1.3.0 + libmatroska v1.4.0
Video
ID : 1
Format : AVC
Format/Info : Advanced Video Codec
Format profile : High@L4
Format settings : CABAC / 4 Ref Frames
Format settings, CABAC : Yes
Format settings, ReFrames : 4 frames
Codec ID : V_MPEG4/ISO/AVC
Duration : 1 h 14 min
Bit rate : 4 989 kb/s
Width : 1 920 pixels
Height : 1 080 pixels
Display aspect ratio : 16:9
Frame rate mode : Constant
Frame rate : 24.000 FPS
Color space : YUV
Chroma subsampling : 4:2:0
Bit depth : 8 bits
Scan type : Progressive
Bits/(Pixel*Frame) : 0.100
Stream size : 2.60 GiB (91%)
Language : English
Default : Yes
Forced : No
Color range : Limited
Color primaries : BT.709
Transfer characteristics : BT.709
Matrix coefficients : BT.709
Audio
ID : 2
Format : AC-3
Format/Info : Audio Coding 3
Codec ID : A_AC3
Duration : 1 h 14 min
Bit rate mode : Constant
Bit rate : 384 kb/s
Channel(s) : 6 channels
Channel positions : Front: L C R, Side: L R, LFE
Sampling rate : 48.0 kHz
Frame rate : 31.250 FPS (1536 SPF)
Bit depth : 16 bits
Compression mode : Lossy
Stream size : 205 MiB (7%)
Language : Russian
Service kind : Complete Main
Default : Yes
Forced : No
Menu
00:00:00.000 : en:Глава 1
00:03:00.875 : en:Глава 2
00:11:49.250 : en:Глава 3
00:16:13.916 : en:Глава 4
00:22:17.916 : en:Глава 5
00:30:12.416 : en:Глава 6
00:36:35.791 : en:Глава 7
00:43:53.082 : en:Глава 8
00:51:04.165 : en:Глава 9
00:57:06.831 : en:Глава 10
01:05:52.081 : en:Глава 11

 
Не забывайте говорить Спасибо. Не уходите с раздачи!   
Торрент: Зарегистрирован [03 июл 2018, 16:53] Скачать торрент
Скачать торрент
[ Размер 14.73 КБ / Просмотров 1 ]
Статус:
Проверен
 
.torrent скачан: 0 раз
Хэш: 3c8b22137f10e475b5c5191b7bf242b7ea7121ff
Размер: 2.85 ГБ (3 062 957 620 байт)
Стать Автором раздачи
 
 
Раздал: 0 байт
Скачал: 0 байт
Ратио: Inf.
Сообщения: 487468
Зарегистрирован: 17 апр 2014, 13:57


  • Похожие торренты
    Ответы
    Просмотры
    Последнее сообщение

Вернуться в Мультфильмы и мультсериалы

Ресурс не предоставляет электронные версии произведений, а занимается лишь коллекционированием и каталогизацией ссылок, присылаемых и публикуемых на форуме нашими читателями. Если вы являетесь правообладателем какого-либо представленного материала и не желаете чтобы ссылка на него находилась в нашем каталоге, свяжитесь с нами и мы незамедлительно удалим её. Файлы для обмена на трекере предоставлены пользователями сайта, и администрация не несёт ответственности за их содержание. Просьба не заливать файлы, защищенные авторскими правами, а также файлы нелегального содержания!
cron