Зубастики 2 Основное блюдо / Critters 2 The Main Course (Мик Гаррис / Mick Garris) [1988, США, фантастика, ужасы, комедия, WEBRip] AVO (Андрей Гаврилов) + AVO (Сергей Кузнецов) + VO (Неизвестный)

 
 Статистика раздачи 
Размер: 1020.5 МБ   |  Зарегистрирован: 05 янв 2017, 09:56   |   .torrent скачан: 0 раз
Сидеров: 1  [ 0 байт/сек ]     Личеров: 0  [ 0 байт/сек ]  
  

Зубастики 2 Основное блюдо / Critters 2 The Main Course (Мик Гаррис / Mick Garris) [1988, США, фантастика, ужасы, комедия, WEBRip] AVO (Андрей Гаврилов) + AVO (Сергей Кузнецов) + VO (Неизвестный)

Сообщение Nakazhu » 03 июл 2018, 12:12

Зубастики 2 Основное блюдо / Critters 2 The Main Course
Страна: США
Жанр: фантастика, ужасы, комедия
Год выпуска: 1988
Продолжительность: 01:25:46
Перевод: Авторский (одноголосый закадровый) Андрей Гаврилов
Перевод 2: Авторский (одноголосый закадровый) Сергей Кузнецов (отдельно)
Перевод 3: Одноголосый закадровый Неизвестный (отдельно)
Субтитры: нет
Режиссер: Мик Гаррис / Mick Garris
В ролях: Терренс Ман, Дон Кейт Оппер, Синтия Гаррис, Скотт Гримс, Ал Стивенсон, Том Ходжес, Дуглас Роу, Лайан Александра Кертис , Линдси Паркер
Описание: Плотоядные зубастики из космоса возвращаются! Прошло два года с тех пор, как гадкие существа впервые терроризировали городишко Гроверз Бенд и заставили семью Браунов собрать вещички. Но мальчик Брэд Браун вернулся... и как раз вовремя. Яички уже лопаются повсюду, и кровожадные волосатые шары готовы заняться любимым делом, а именно вкусить человеческую плоть и не только. К счастью, на помощь к людям прилетают трое космических охотников Уг, Ли и Чарли, чтобы противостоять монстрам - зубастикам...
Доп. информация: Выражаю огромную благодарность Нордеру за синхронизацию и звуковых дорожек с Кузнецовым и Неизвестным.
Сэмпл: http://multi-up.com/1202919
Качество видео: WEBRip (Исходник Zubastiki-2.1988 (S.Graymz, D.K.Opper). WEBRip 720p mkv)
Формат видео: AVI
Видео: XviD 73, 656x368, (16:9), 23,976 fps, 1014 Кбит/с
Аудио: Русский (АС3, 2 ch (Front: L R), 48,0 KHz, 192 Kbps) Авторский (одноголосый закадровый) Андрей Гаврилов
Аудио 2: Русский (АС3, 2 ch (Front: L R), 48,0 KHz, 224 Kbps) Авторский (одноголосый закадровый) Сергей Кузнецов (отдельно)
Аудио 3: Русский (АС3, 2 ch (Front: L R), 48,0 KHz, 224 Kbps) Одноголосый закадровый Неизвестный (отдельно)
Субтитры: нет
Общее
Полное имя : F:\Видеофильмы\В и д е о\Зубастики - 2 (фантастика, ужасы, комедия 1988 год).avi
Формат : AVI
Формат/Информация : Audio Video Interleave
Размер файла : 746 Мбайт
Продолжительность : 1 ч. 25 м.
Общий поток : 1216 Кбит/сек
Программа кодирования : VirtualDubMod 1.5.10.3 | www.virtualdub-fr.org || (build 2550/release)
Библиотека кодирования : VirtualDubMod build 2550/release
Видео
Идентификатор : 0
Формат : MPEG-4 Visual
Профиль формата : Advanced Simple@L5
Параметр BVOP формата : 2
Параметр QPel формата : Нет
Параметр GMC формата : Без точки перехода
Параметр матрицы формата : Выборочная
Идентификатор кодека : XVID
Идентификатор кодека/Подсказка : XviD
Продолжительность : 1 ч. 25 м.
Битрейт : 1014 Кбит/сек
Ширина : 656 пикселей
Высота : 368 пикселей
Соотношение сторон : 16:9
Частота кадров : 23,976 (23976/1000) кадра/сек
Цветовое пространство : YUV
Субдискретизация насыщенности : 4:2:0
Битовая глубина : 8 бит
Тип развёртки : Прогрессивная
Метод сжатия : С потерями
Бит/(Пиксели*Кадры) : 0.175
Размер потока : 622 Мбайт (83%)
Библиотека кодирования : XviD 73
Аудио
Идентификатор : 1
Формат : AC-3
Формат/Информация : Audio Coding 3
Расширение режима : CM (complete main)
Параметр Endianness формата : Big
Идентификатор кодека : 2000
Продолжительность : 1 ч. 25 м.
Вид битрейта : Постоянный
Битрейт : 192 Кбит/сек
Каналы : 2 канала
Расположение каналов : Front: L R
Частота : 48,0 КГц
Частота кадров : 31,250 кадров/сек (1536 spf)
Метод сжатия : С потерями
Размер потока : 118 Мбайт (16%)
Выравнивание : Разделение по промежуткам
Продолжительность промежутка : 42 мс. (1,00 видеокадр)
Время предзагрузки промежутка : 500 мс.
 
Не забывайте говорить Спасибо. Не уходите с раздачи!   
Торрент: Зарегистрирован [05 янв 2017, 09:56] Скачать торрент
Скачать торрент
[ Размер 20.86 КБ / Просмотров 0 ]
Статус:
Проверен
 
.torrent скачан: 0 раз
Хэш: 1bb6ec1e6c04e75c85878b5b8fa3a0bf9e18b5b4
Размер: 1020.5 МБ (1 070 067 968 байт)
Стать Автором раздачи
 
 
Раздал: 0 байт
Скачал: 0 байт
Ратио: Inf.
Сообщения: 487468
Зарегистрирован: 17 апр 2014, 13:57


  • Похожие торренты
    Ответы
    Просмотры
    Последнее сообщение

Вернуться в Зарубежные фильмы до 1990 года

Ресурс не предоставляет электронные версии произведений, а занимается лишь коллекционированием и каталогизацией ссылок, присылаемых и публикуемых на форуме нашими читателями. Если вы являетесь правообладателем какого-либо представленного материала и не желаете чтобы ссылка на него находилась в нашем каталоге, свяжитесь с нами и мы незамедлительно удалим её. Файлы для обмена на трекере предоставлены пользователями сайта, и администрация не несёт ответственности за их содержание. Просьба не заливать файлы, защищенные авторскими правами, а также файлы нелегального содержания!
cron