[TR24][OF] [WEB] 19Para - Goldener Reiter - 2018, FLAC (tracks), lossless (Melodic Death Metal \ Metalcore)

 
 Статистика раздачи 
Размер: 573.26 МБ   |  Зарегистрирован: 03 июл 2018, 02:43   |   .torrent скачан: 0 раз
Сидеров: 1  [ 0 байт/сек ]     Личеров: 0  [ 0 байт/сек ]  
  

[TR24][OF] [WEB] 19Para - Goldener Reiter - 2018, FLAC (tracks), lossless (Melodic Death Metal \ Metalcore)

Сообщение Nakazhu » 03 июл 2018, 05:51

19Para | Goldener Reiter (2018)

Жанр: Melodic Death Metal / Metalcore
Год издания: 2018
Страна: Germany
Продолжительность: 00:45:08
Носитель: WEB
Формат записи/Источник записи: [TR24][OF]
Наличие водяных знаков: Нет
Формат: WAV (flac)
Тип рипа: tracks
Разрядность: 24/44,1
Количество каналов: 2.0
Источник (релизер): Bandcamp
Cканы: Нет
Треклист:
01 - Guillotine 03:29
02 - Ein sterbender Schwan 03:51
03 - Hunger 03:03
04 - Das Okular 04:02
05 - Voyeur 03:36
06 - Goldener Reiter 03:48
07 - Udfwv 03:48
08 - Rattenfänger 04:02
09 - Duell 04:03
10 - Eisbär 03:40
11 - Heimkehr 03:55
12 - Clown 03:53

Код: Выделить всё
foobar2000 1.3.9 / Dynamic Range Meter 1.1.1
log date: 2018-07-02 18:31:08
--------------------------------------------------------------------------------
Analyzed: 19Para / Goldener Reiter
--------------------------------------------------------------------------------
DR         Peak         RMS     Duration Track
--------------------------------------------------------------------------------
DR4        0.00 dB    -4.51 dB      3:29 01-Guillotine
DR3        0.00 dB    -3.74 dB      3:51 02-Ein sterbender Schwan
DR4        0.00 dB    -4.54 dB      3:03 03-Hunger
DR4        0.00 dB    -4.56 dB      4:02 04-Das Okular
DR4        0.00 dB    -5.01 dB      3:36 05-Voyeur
DR4        0.00 dB    -5.32 dB      3:48 06-Goldener Reiter (Joachim Witt Cover)
DR3        0.00 dB    -3.98 dB      3:48 07-UDFWV
DR4        0.00 dB    -4.83 dB      4:02 08-Rattenfänger
DR3        0.00 dB    -4.84 dB      4:03 09-Duell
DR4        0.00 dB    -4.50 dB      3:40 10-Eisbär
DR4        0.00 dB    -5.25 dB      3:55 11-Heimkehr
DR4        0.00 dB    -4.80 dB      3:53 12-Clown
--------------------------------------------------------------------------------
Number of tracks:  12
Official DR value: DR4
Samplerate:        44100 Hz
Channels:          2
Bits per sample:   24
Bitrate:           1746 kbps
Codec:             FLAC
================================================================================

Album in MP3
Рекомендую приобретать лицензионную продукцию!
 
Не забывайте говорить Спасибо. Не уходите с раздачи!   
Торрент: Зарегистрирован [03 июл 2018, 02:43] Скачать торрент
Скачать торрент
[ Размер 12.32 КБ / Просмотров 1 ]
Статус:
Проверен
 
.torrent скачан: 0 раз
Хэш: a8205ba29740edb45d8f9a0fb4a31208204caa55
Размер: 573.26 МБ (601 106 303 байт)
Стать Автором раздачи
 
 
Раздал: 0 байт
Скачал: 0 байт
Ратио: Inf.
Сообщения: 487468
Зарегистрирован: 17 апр 2014, 13:57


  • Похожие торренты
    Ответы
    Просмотры
    Последнее сообщение

Вернуться в Hardcore (lossless)

Ресурс не предоставляет электронные версии произведений, а занимается лишь коллекционированием и каталогизацией ссылок, присылаемых и публикуемых на форуме нашими читателями. Если вы являетесь правообладателем какого-либо представленного материала и не желаете чтобы ссылка на него находилась в нашем каталоге, свяжитесь с нами и мы незамедлительно удалим её. Файлы для обмена на трекере предоставлены пользователями сайта, и администрация не несёт ответственности за их содержание. Просьба не заливать файлы, защищенные авторскими правами, а также файлы нелегального содержания!
cron