(Hardcore) [CD] Your Demise - Discography (4 Albums + EP + 2 Singles) 2006-2012, FLAC (tracks+.cue), lossless

 
 Статистика раздачи 
Размер: 1.34 ГБ   |  Зарегистрирован: 22 июн 2014, 07:22   |   .torrent скачан: 0 раз
Сидеров: 1  [ 0 байт/сек ]     Личеров: 0  [ 0 байт/сек ]  
  

(Hardcore) [CD] Your Demise - Discography (4 Albums + EP + 2 Singles) 2006-2012, FLAC (tracks+.cue), lossless

Сообщение Nakazhu » 03 июл 2018, 05:19

Your Demise | Discography


Жанр: Hardcore | Годы издания: 2006-2012 | Страна: UK | Общая продолжительность: 02:57:26
Аудиокодек: LAC (*.flac) | Тип рипа: tracks+.cue | Битрейт аудио: lossless | Источник: Собственные СD | Наличие сканов: Да | Тексты песен: Вшиты

Your Demise / You Only Make Us Stronger

Продолжительность: 00:17:57
Издатель: Zone 6 Records
Каталог №: KAK001
Треклист:
01 - You Only Make Us Stronger 01:03
02 - Diamonds Are Forever But You're Fucking Not 01:23
03 - Allow 02:27
04 - Sahc2 01:00
05 - Curl Up And Die 01:52
06 - Fuck Everyone 01:58
07 - The Jokes On You 02:24
08 - Doesn't Seem Ideal 02:03
09 - Hole Hearted 02:12
10 - Gutted 01:01
Код: Выделить всё
Exact Audio Copy V1.0 beta 3 from 29. August 2011
EAC extraction logfile from 29. August 2014, 23:40
Your Demise / You Only Make Us Stronger
Used drive  : HL-DT-STBD-RE BT11F   Adapter: 2  ID: 0
Read mode               : Secure
Utilize accurate stream : Yes
Defeat audio cache      : Yes
Make use of C2 pointers : No
Read offset correction                      : 667
Overread into Lead-In and Lead-Out          : No
Fill up missing offset samples with silence : Yes
Delete leading and trailing silent blocks   : No
Null samples used in CRC calculations       : Yes
Used interface                              : Native Win32 interface for Win NT & 2000
Gap handling                                : Appended to previous track
Used output format              : User Defined Encoder
Selected bitrate                : 128 kBit/s
Quality                         : High
Add ID3 tag                     : No
Command line compressor         : E:\Program Files\Exact Audio Copy\Flac\flac.exe
Additional command line options : -V -8 -T "Genre=%genre%" -T "Artist=%artist%" -T "Title=%title%" -T "Album=%albumtitle%" -T "Date=%year%" -T "Tracknumber=%tracknr%" -T "Comment=%comment%" %source%
TOC of the extracted CD
     Track |   Start  |  Length  | Start sector | End sector
    ---------------------------------------------------------
        1  |  0:00.00 |  1:33.55 |         0    |     7029
        2  |  1:33.55 |  1:23.32 |      7030    |    13286
        3  |  2:57.12 |  2:27.45 |     13287    |    24356
        4  |  5:24.57 |  1:00.12 |     24357    |    28868
        5  |  6:24.69 |  1:52.03 |     28869    |    37271
        6  |  8:16.72 |  1:58.08 |     37272    |    46129
        7  | 10:15.05 |  2:24.35 |     46130    |    56964
        8  | 12:39.40 |  2:03.42 |     56965    |    66231
        9  | 14:43.07 |  2:12.70 |     66232    |    76201
       10  | 16:56.02 |  1:01.28 |     76202    |    80804
Track  1
     Filename E:\Music\Your Demise - Discography (FLAC)\Albums\2006 - You Only Make Us Stronger\01 You Only Make Us Stronger.wav
     Pre-gap length  0:00:02.00
     Peak level 100.0 %
     Extraction speed 1.9 X
     Track quality 100.0 %
     Test CRC 43F60983
     Copy CRC 43F60983
     Accurately ripped (confidence 1)  [A064E6A4]  (AR v2)
     Copy OK
Track  2
     Filename E:\Music\Your Demise - Discography (FLAC)\Albums\2006 - You Only Make Us Stronger\02 Diamonds Are Forever But You're Fucking Not.wav
     Peak level 99.9 %
     Extraction speed 2.0 X
     Track quality 100.0 %
     Test CRC 4CA7DCBC
     Copy CRC 4CA7DCBC
     Accurately ripped (confidence 1)  [DCFA3600]  (AR v2)
     Copy OK
Track  3
     Filename E:\Music\Your Demise - Discography (FLAC)\Albums\2006 - You Only Make Us Stronger\03 Allow.wav
     Peak level 99.9 %
     Extraction speed 1.6 X
     Track quality 99.8 %
     Test CRC CF6D0448
     Copy CRC CF6D0448
     Accurately ripped (confidence 1)  [24F48BDD]  (AR v2)
     Copy OK
Track  4
     Filename E:\Music\Your Demise - Discography (FLAC)\Albums\2006 - You Only Make Us Stronger\04 SAHC2.wav
     Peak level 100.0 %
     Extraction speed 1.9 X
     Track quality 100.0 %
     Test CRC 277762A3
     Copy CRC 277762A3
     Accurately ripped (confidence 1)  [ADFB0EB4]  (AR v2)
     Copy OK
Track  5
     Filename E:\Music\Your Demise - Discography (FLAC)\Albums\2006 - You Only Make Us Stronger\05 Curl Up And Die.wav
     Peak level 99.9 %
     Extraction speed 2.5 X
     Track quality 100.0 %
     Test CRC 1F08E582
     Copy CRC 1F08E582
     Accurately ripped (confidence 1)  [41FE8071]  (AR v2)
     Copy OK
Track  6
     Filename E:\Music\Your Demise - Discography (FLAC)\Albums\2006 - You Only Make Us Stronger\06 Fuck Everyone.wav
     Peak level 99.9 %
     Extraction speed 2.5 X
     Track quality 100.0 %
     Test CRC DC330D92
     Copy CRC DC330D92
     Accurately ripped (confidence 1)  [B9AC088D]  (AR v2)
     Copy OK
Track  7
     Filename E:\Music\Your Demise - Discography (FLAC)\Albums\2006 - You Only Make Us Stronger\07 The Jokes On You.wav
     Peak level 99.9 %
     Extraction speed 2.8 X
     Track quality 100.0 %
     Test CRC EAE90A65
     Copy CRC EAE90A65
     Accurately ripped (confidence 1)  [CC0E58CC]  (AR v2)
     Copy OK
Track  8
     Filename E:\Music\Your Demise - Discography (FLAC)\Albums\2006 - You Only Make Us Stronger\08 Doesn't Seem Ideal.wav
     Peak level 99.9 %
     Extraction speed 2.8 X
     Track quality 100.0 %
     Test CRC 87AB4449
     Copy CRC 87AB4449
     Accurately ripped (confidence 1)  [840B54CD]  (AR v2)
     Copy OK
Track  9
     Filename E:\Music\Your Demise - Discography (FLAC)\Albums\2006 - You Only Make Us Stronger\09 Hole Hearted.wav
     Peak level 99.9 %
     Extraction speed 3.0 X
     Track quality 100.0 %
     Test CRC CEA9CB68
     Copy CRC CEA9CB68
     Accurately ripped (confidence 1)  [18EE4137]  (AR v2)
     Copy OK
Track 10
     Filename E:\Music\Your Demise - Discography (FLAC)\Albums\2006 - You Only Make Us Stronger\10 Gutted.wav
     Peak level 99.9 %
     Extraction speed 2.4 X
     Track quality 100.0 %
     Test CRC 1E48F7FA
     Copy CRC 1E48F7FA
     Accurately ripped (confidence 1)  [CD05427F]  (AR v2)
     Copy OK
All tracks accurately ripped
No errors occurred
End of status report
==== Log checksum C7C228C9B23B61903E95D8B8F31EFCF134B734D8C9CF1C139096A93ED0D21B35 ====
Код: Выделить всё
REM GENRE Hardcore
REM DATE 2006
REM DISCID 8D04350A
REM COMMENT "ExactAudioCopy v1.0b3"
PERFORMER "Your Demise"
TITLE "You Only Make Us Stronger"
FILE "01 You Only Make Us Stronger.wav" WAVE
  TRACK 01 AUDIO
    TITLE "You Only Make Us Stronger"
    PERFORMER "Your Demise"
    INDEX 01 00:00:00
FILE "02 Diamonds Are Forever But You're Fucking Not.wav" WAVE
  TRACK 02 AUDIO
    TITLE "Diamonds Are Forever But You're Fucking Not"
    PERFORMER "Your Demise"
    INDEX 01 00:00:00
FILE "03 Allow.wav" WAVE
  TRACK 03 AUDIO
    TITLE "Allow"
    PERFORMER "Your Demise"
    INDEX 01 00:00:00
FILE "04 SAHC2.wav" WAVE
  TRACK 04 AUDIO
    TITLE "SAHC2"
    PERFORMER "Your Demise"
    INDEX 01 00:00:00
FILE "05 Curl Up And Die.wav" WAVE
  TRACK 05 AUDIO
    TITLE "Curl Up And Die"
    PERFORMER "Your Demise"
    INDEX 01 00:00:00
FILE "06 Fuck Everyone.wav" WAVE
  TRACK 06 AUDIO
    TITLE "Fuck Everyone"
    PERFORMER "Your Demise"
    INDEX 01 00:00:00
FILE "07 The Jokes On You.wav" WAVE
  TRACK 07 AUDIO
    TITLE "The Jokes On You"
    PERFORMER "Your Demise"
    INDEX 01 00:00:00
FILE "08 Doesn't Seem Ideal.wav" WAVE
  TRACK 08 AUDIO
    TITLE "Doesn't Seem Ideal"
    PERFORMER "Your Demise"
    INDEX 01 00:00:00
FILE "09 Hole Hearted.wav" WAVE
  TRACK 09 AUDIO
    TITLE "Hole Hearted"
    PERFORMER "Your Demise"
    INDEX 01 00:00:00
FILE "10 Gutted.wav" WAVE
  TRACK 10 AUDIO
    TITLE "Gutted"
    PERFORMER "Your Demise"
    INDEX 01 00:00:00
Код: Выделить всё
-----------------------
DON'T MODIFY THIS FILE
-----------------------
PERFORMER: auCDtect Task Manager, ver. 1.6.0 RC1 build 1.6.0.1
Copyright (c) 2008-2010 y-soft. All rights reserved
[url=http://y-soft.org]http://y-soft.org[/url]
ANALYZER: auCDtect: CD records authenticity detector, version 0.8.2
Copyright (c) 2004 Oleg Berngardt. All rights reserved.
Copyright (c) 2004 Alexander Djourik. All rights reserved.
FILE: 04 SAHC2.flac
  Size: 7223899 Hash: 295BD32A8A994F146035EA37A0F78606 Accuracy: -m0
  Conclusion: CDDA 99%
  Signature: 0726AB1C7182883598C5590569874945CEEF0DFA
FILE: 03 Allow.flac
  Size: 19348312 Hash: 60A8E93603F24F0A845897DAE3FFC0D1 Accuracy: -m0
  Conclusion: CDDA 100%
  Signature: 0EC9D67D3FBC9FA32C3605E3065C3628AFD7B46D
FILE: 02 Diamonds Are Forever But You're Fucking Not.flac
  Size: 10673285 Hash: 8BFC716F775419973B4BFC384ED9CB9F Accuracy: -m0
  Conclusion: CDDA 100%
  Signature: 24DCCCB449E7F03006FF8085E9BB81C1EE48237D
FILE: 01 You Only Make Us Stronger.flac
  Size: 12031059 Hash: 3D4947BD3C6DFBBE8743DFE93BEB8CBC Accuracy: -m0
  Conclusion: CDDA 100%
  Signature: AEFFC401928B26DB338661A38ABE32DCD591A1EE
FILE: 10 Gutted.flac
  Size: 7758315 Hash: 824EBCD026A24BED1DA6A8C0CB1DEB53 Accuracy: -m0
  Conclusion: CDDA 100%
  Signature: C97AF3C4A8036206707350F183CFF31A6AA1B22D
FILE: 09 Hole Hearted.flac
  Size: 16359945 Hash: 5B0F3C3F89346FA6A161E6B879B7E649 Accuracy: -m0
  Conclusion: CDDA 100%
  Signature: 43AD4CB9463BB554024FEAB019518642751DCBC5
FILE: 08 Doesn't Seem Ideal.flac
  Size: 15527077 Hash: 5FE0A90FD5704C77D22362FCA91136BA Accuracy: -m0
  Conclusion: CDDA 99%
  Signature: 99CD00EF75EB1F2C6963589E89419D074594B2D2
FILE: 07 The Jokes On You.flac
  Size: 17969062 Hash: 085E0E9448F9CED50DA6DDB5A6F7FA22 Accuracy: -m0
  Conclusion: CDDA 100%
  Signature: EC78873D6B81745C08CDE8CAA2747DBC6315F94C
FILE: 06 Fuck Everyone.flac
  Size: 14776385 Hash: AC58474BB2183BA8FACFEBB5DAB359DA Accuracy: -m0
  Conclusion: CDDA 100%
  Signature: C3A6D25490C99A1AAA4EAD11DD9E7E3C6E8B08A3
FILE: 05 Curl Up And Die.flac
  Size: 13535677 Hash: DF12D0AC8BF4DC8667A2438E70A2CCBC Accuracy: -m0
  Conclusion: CDDA 100%
  Signature: 524AF75B855F3AB4EADD38804BF8AD1633B48820
#77
Your Demise / Ignorance Never Dies

Продолжительность: 00:43:28
Издатель: Visible Noise
Каталог №: MOSH380
Треклист:
01 - Ignorance Never Dies 02:13
02 - Burnt Tongues 02:55
03 - Nothing Left But Regret 02:17
04 - Antipode 03:06
05 - Hypochondriac 01:06
06 - Dreaming Of Believing 02:00
07 - Tf 03:13
08 - Unknown Dub 05:07
09 - The Clocks Aren't Ticking Backwards 03:34
10 - Feels Like There's Something Dark Inside 04:46
11 - All I Never Want To Be 02:17
12 - Great Shape 03:19
13 - Black Veins 04:25
14 - Blood Ran Cold 03:04
Код: Выделить всё
Exact Audio Copy V1.0 beta 3 from 29. August 2011
EAC extraction logfile from 29. August 2014, 22:28
Your Demise / Ignorance Never Dies
Used drive  : HL-DT-STBD-RE BT11F   Adapter: 2  ID: 0
Read mode               : Secure
Utilize accurate stream : Yes
Defeat audio cache      : Yes
Make use of C2 pointers : No
Read offset correction                      : 667
Overread into Lead-In and Lead-Out          : No
Fill up missing offset samples with silence : Yes
Delete leading and trailing silent blocks   : No
Null samples used in CRC calculations       : Yes
Used interface                              : Native Win32 interface for Win NT & 2000
Gap handling                                : Appended to previous track
Used output format              : User Defined Encoder
Selected bitrate                : 128 kBit/s
Quality                         : High
Add ID3 tag                     : No
Command line compressor         : E:\Program Files\Exact Audio Copy\Flac\flac.exe
Additional command line options : -V -8 -T "Genre=%genre%" -T "Artist=%artist%" -T "Title=%title%" -T "Album=%albumtitle%" -T "Date=%year%" -T "Tracknumber=%tracknr%" -T "Comment=%comment%" %source%
TOC of the extracted CD
     Track |   Start  |  Length  | Start sector | End sector
    ---------------------------------------------------------
        1  |  0:00.00 |  2:13.21 |         0    |     9995
        2  |  2:13.21 |  2:55.20 |      9996    |    23140
        3  |  5:08.41 |  2:17.43 |     23141    |    33458
        4  |  7:26.09 |  3:06.43 |     33459    |    47451
        5  | 10:32.52 |  1:06.03 |     47452    |    52404
        6  | 11:38.55 |  2:00.69 |     52405    |    61473
        7  | 13:39.49 |  3:13.01 |     61474    |    75949
        8  | 16:52.50 |  5:07.11 |     75950    |    98985
        9  | 21:59.61 |  3:34.67 |     98986    |   115102
       10  | 25:34.53 |  4:46.70 |    115103    |   136622
       11  | 30:21.48 |  2:17.35 |    136623    |   146932
       12  | 32:39.08 |  3:19.24 |    146933    |   161881
       13  | 35:58.32 |  4:25.29 |    161882    |   181785
       14  | 40:23.61 |  3:04.48 |    181786    |   195633
Track  1
     Filename E:\Music\Your Demise - Discography (FLAC)\Albums\2009 - Ignorance Never Dies\01 Ignorance Never Dies.wav
     Pre-gap length  0:00:02.00
     Peak level 99.9 %
     Extraction speed 2.2 X
     Track quality 100.0 %
     Test CRC 716B5DF5
     Copy CRC 716B5DF5
     Accurately ripped (confidence 3)  [E084612E]  (AR v2)
     Copy OK
Track  2
     Filename E:\Music\Your Demise - Discography (FLAC)\Albums\2009 - Ignorance Never Dies\02 Burnt Tounges.wav
     Peak level 100.0 %
     Extraction speed 2.0 X
     Track quality 99.9 %
     Test CRC 3A814FE0
     Copy CRC 3A814FE0
     Accurately ripped (confidence 3)  [85929076]  (AR v2)
     Copy OK
Track  3
     Filename E:\Music\Your Demise - Discography (FLAC)\Albums\2009 - Ignorance Never Dies\03 Nothing Left But Regret.wav
     Peak level 100.0 %
     Extraction speed 2.5 X
     Track quality 100.0 %
     Test CRC BD4DD0B6
     Copy CRC BD4DD0B6
     Accurately ripped (confidence 3)  [8A65AA88]  (AR v2)
     Copy OK
Track  4
     Filename E:\Music\Your Demise - Discography (FLAC)\Albums\2009 - Ignorance Never Dies\04 Antipode.wav
     Peak level 100.0 %
     Extraction speed 2.3 X
     Track quality 99.9 %
     Test CRC 65848D84
     Copy CRC 65848D84
     Accurately ripped (confidence 3)  [0FBF7FD3]  (AR v2)
     Copy OK
Track  5
     Filename E:\Music\Your Demise - Discography (FLAC)\Albums\2009 - Ignorance Never Dies\05 Hypochondriac.wav
     Peak level 86.1 %
     Extraction speed 1.6 X
     Track quality 99.8 %
     Test CRC 980EC615
     Copy CRC 980EC615
     Accurately ripped (confidence 3)  [DD49E2CB]  (AR v2)
     Copy OK
Track  6
     Filename E:\Music\Your Demise - Discography (FLAC)\Albums\2009 - Ignorance Never Dies\06 Dreaming of Believing.wav
     Peak level 100.0 %
     Extraction speed 2.7 X
     Track quality 100.0 %
     Test CRC 707E8A4A
     Copy CRC 707E8A4A
     Accurately ripped (confidence 3)  [F3EE5992]  (AR v2)
     Copy OK
Track  7
     Filename E:\Music\Your Demise - Discography (FLAC)\Albums\2009 - Ignorance Never Dies\07 TF.wav
     Peak level 100.0 %
     Extraction speed 3.1 X
     Track quality 100.0 %
     Test CRC 7789BF55
     Copy CRC 7789BF55
     Accurately ripped (confidence 3)  [6A6FDBEC]  (AR v2)
     Copy OK
Track  8
     Filename E:\Music\Your Demise - Discography (FLAC)\Albums\2009 - Ignorance Never Dies\08 Unknown Dub.wav
     Peak level 63.4 %
     Extraction speed 3.5 X
     Track quality 100.0 %
     Test CRC 9EC37476
     Copy CRC 9EC37476
     Accurately ripped (confidence 3)  [54DCDB40]  (AR v2)
     Copy OK
Track  9
     Filename E:\Music\Your Demise - Discography (FLAC)\Albums\2009 - Ignorance Never Dies\09 The Clocks Arent Ticking Backwards.wav
     Peak level 99.9 %
     Extraction speed 3.5 X
     Track quality 100.0 %
     Test CRC B7F184A9
     Copy CRC B7F184A9
     Accurately ripped (confidence 3)  [7CCCA2B8]  (AR v2)
     Copy OK
Track 10
     Filename E:\Music\Your Demise - Discography (FLAC)\Albums\2009 - Ignorance Never Dies\10 Feels Like Theres Something Dark Inside.wav
     Peak level 100.0 %
     Extraction speed 3.8 X
     Track quality 100.0 %
     Test CRC 45C8706B
     Copy CRC 45C8706B
     Accurately ripped (confidence 3)  [D95019B3]  (AR v2)
     Copy OK
Track 11
     Filename E:\Music\Your Demise - Discography (FLAC)\Albums\2009 - Ignorance Never Dies\11 All I Never Want to Be.wav
     Peak level 100.0 %
     Extraction speed 2.8 X
     Track quality 99.9 %
     Test CRC 96CDD1B4
     Copy CRC 96CDD1B4
     Accurately ripped (confidence 3)  [F115E4BC]  (AR v2)
     Copy OK
Track 12
     Filename E:\Music\Your Demise - Discography (FLAC)\Albums\2009 - Ignorance Never Dies\12 Great Shape.wav
     Peak level 50.1 %
     Extraction speed 3.9 X
     Track quality 100.0 %
     Test CRC 7F6C5F57
     Copy CRC 7F6C5F57
     Accurately ripped (confidence 3)  [4D420EA9]  (AR v2)
     Copy OK
Track 13
     Filename E:\Music\Your Demise - Discography (FLAC)\Albums\2009 - Ignorance Never Dies\13 Black Veins.wav
     Peak level 100.0 %
     Extraction speed 4.2 X
     Track quality 100.0 %
     Test CRC 31F57B50
     Copy CRC 31F57B50
     Accurately ripped (confidence 3)  [9F791AA7]  (AR v2)
     Copy OK
Track 14
     Filename E:\Music\Your Demise - Discography (FLAC)\Albums\2009 - Ignorance Never Dies\14 Blood Ran Cold.wav
     Peak level 100.0 %
     Extraction speed 3.5 X
     Track quality 99.9 %
     Test CRC D014098B
     Copy CRC D014098B
     Accurately ripped (confidence 3)  [748B6587]  (AR v2)
     Copy OK
All tracks accurately ripped
No errors occurred
End of status report
==== Log checksum 4CD2D8D3D00AD376878A3561EF0AD9AD3CAB6B50BC167667B55AF40BE57D19FA ====
Код: Выделить всё
REM GENRE Hardcore
REM DATE 2009
REM DISCID 8F0A300E
REM COMMENT "ExactAudioCopy v1.0b3"
PERFORMER "Your Demise"
TITLE "Ignorance Never Dies"
FILE "01 Ignorance Never Dies.wav" WAVE
  TRACK 01 AUDIO
    TITLE "Ignorance Never Dies"
    PERFORMER "Your Demise"
    ISRC GBEGS0900001
    INDEX 01 00:00:00
FILE "02 Burnt Tounges.wav" WAVE
  TRACK 02 AUDIO
    TITLE "Burnt Tounges"
    PERFORMER "Your Demise"
    ISRC GBEGS0900002
    INDEX 01 00:00:00
FILE "03 Nothing Left But Regret.wav" WAVE
  TRACK 03 AUDIO
    TITLE "Nothing Left But Regret"
    PERFORMER "Your Demise"
    ISRC GBEGS0900003
    INDEX 01 00:00:00
FILE "04 Antipode.wav" WAVE
  TRACK 04 AUDIO
    TITLE "Antipode"
    PERFORMER "Your Demise"
    ISRC GBEGS0900004
    INDEX 01 00:00:00
FILE "05 Hypochondriac.wav" WAVE
  TRACK 05 AUDIO
    TITLE "Hypochondriac"
    PERFORMER "Your Demise"
    ISRC GBEGS0900005
    INDEX 01 00:00:00
FILE "06 Dreaming of Believing.wav" WAVE
  TRACK 06 AUDIO
    TITLE "Dreaming of Believing"
    PERFORMER "Your Demise"
    ISRC GBEGS0900006
    INDEX 01 00:00:00
FILE "07 TF.wav" WAVE
  TRACK 07 AUDIO
    TITLE "TF"
    PERFORMER "Your Demise"
    ISRC GBEGS0900007
    INDEX 01 00:00:00
FILE "08 Unknown Dub.wav" WAVE
  TRACK 08 AUDIO
    TITLE "Unknown Dub"
    PERFORMER "Your Demise"
    ISRC GBEGS0900008
    INDEX 01 00:00:00
FILE "09 The Clocks Arent Ticking Backwards.wav" WAVE
  TRACK 09 AUDIO
    TITLE "The Clocks Arent Ticking Backwards"
    PERFORMER "Your Demise"
    ISRC GBEGS0900009
    INDEX 01 00:00:00
FILE "10 Feels Like Theres Something Dark Inside.wav" WAVE
  TRACK 10 AUDIO
    TITLE "Feels Like Theres Something Dark Inside"
    PERFORMER "Your Demise"
    ISRC GBEGS0900010
    INDEX 01 00:00:00
FILE "11 All I Never Want to Be.wav" WAVE
  TRACK 11 AUDIO
    TITLE "All I Never Want to Be"
    PERFORMER "Your Demise"
    ISRC GBEGS0900011
    INDEX 01 00:00:00
FILE "12 Great Shape.wav" WAVE
  TRACK 12 AUDIO
    TITLE "Great Shape"
    PERFORMER "Your Demise"
    ISRC GBEGS0900012
    INDEX 01 00:00:00
FILE "13 Black Veins.wav" WAVE
  TRACK 13 AUDIO
    TITLE "Black Veins"
    PERFORMER "Your Demise"
    ISRC GBEGS0900013
    INDEX 01 00:00:00
FILE "14 Blood Ran Cold.wav" WAVE
  TRACK 14 AUDIO
    TITLE "Blood Ran Cold"
    PERFORMER "Your Demise"
    ISRC GBEGS0900014
    INDEX 01 00:00:00
Код: Выделить всё
-----------------------
DON'T MODIFY THIS FILE
-----------------------
PERFORMER: auCDtect Task Manager, ver. 1.6.0 RC1 build 1.6.0.1
Copyright (c) 2008-2010 y-soft. All rights reserved
[url=http://y-soft.org]http://y-soft.org[/url]
ANALYZER: auCDtect: CD records authenticity detector, version 0.8.2
Copyright (c) 2004 Oleg Berngardt. All rights reserved.
Copyright (c) 2004 Alexander Djourik. All rights reserved.
FILE: 07 TF.flac
  Size: 26168049 Hash: E4D8D959F4B01A5602CDB148D39DDD48 Accuracy: -m0
  Conclusion: CDDA 100%
  Signature: EE59856BE4E8C64AAD2ABE316FB5562908DC0D09
FILE: 06 Dreaming of Believing.flac
  Size: 16579316 Hash: 1070A30DD78A6A2F2F2FCF3E03385134 Accuracy: -m0
  Conclusion: CDDA 100%
  Signature: A63EF5A3EFBC319D01F7E2D259F3E8D6117CCC57
FILE: 05 Hypochondriac.flac
  Size: 6682232 Hash: F50BFE55C76B8DD5A1395D07CA51CE7B Accuracy: -m0
  Conclusion: CDDA 99%
  Signature: BDF65E234C402CA5C685670536847330E8731113
FILE: 04 Antipode.flac
  Size: 24888902 Hash: 03DE83C5A5949BE14AAEBCC50CA3F8EC Accuracy: -m0
  Conclusion: CDDA 100%
  Signature: 9CE39AA282991BAE465C23BB813C52AB1F72BE0C
FILE: 03 Nothing Left But Regret.flac
  Size: 18035171 Hash: 03C97D9B30FBE4144AB8A70C925C7EA4 Accuracy: -m0
  Conclusion: CDDA 100%
  Signature: 77CC0FB034F1E9F1AB22772C3C56C662D9C7F563
FILE: 02 Burnt Tounges.flac
  Size: 23742648 Hash: 7537E9D1EC50652DF43C4532B7A2872E Accuracy: -m0
  Conclusion: CDDA 100%
  Signature: 84D11895B5688590B3E700726B6B0533CF769E3A
FILE: 01 Ignorance Never Dies.flac
  Size: 15455636 Hash: 50882841AA8CC8F18ED4461BD48D9DDC Accuracy: -m0
  Conclusion: CDDA 100%
  Signature: 87FD9DC75FCD8EDB622CA5BBAF2C33A6957AABEE
FILE: 14 Blood Ran Cold.flac
  Size: 23996378 Hash: 07994BF995084DF0D54F659FB0ECD587 Accuracy: -m0
  Conclusion: CDDA 100%
  Signature: EF6ADC68BBA09A7815B1EC4F34179CA6F78E7585
FILE: 13 Black Veins.flac
  Size: 34845519 Hash: 58B538A1E8945452CE328AF845EF7E76 Accuracy: -m0
  Conclusion: CDDA 100%
  Signature: 50849253A131D06A0490D05DE475608068524F7C
FILE: 12 Great Shape.flac
  Size: 22171411 Hash: 9A5BE76217D161D62B6B141F41D52798 Accuracy: -m0
  Conclusion: CDDA 100%
  Signature: B7C089BA3FAF24966200D98897A5F471518849BD
FILE: 11 All I Never Want to Be.flac
  Size: 18841416 Hash: 181744E66864583E7A46911E4D050F59 Accuracy: -m0
  Conclusion: CDDA 100%
  Signature: D9A341D7F31C00D16AE69D00A576A32465A18519
FILE: 10 Feels Like Theres Something Dark Inside.flac
  Size: 38225059 Hash: 9827E91D950DF08D88E6C06F7C12B201 Accuracy: -m0
  Conclusion: CDDA 100%
  Signature: 688E6D0838619642D3C9CB720F084EF860844EA0
FILE: 09 The Clocks Arent Ticking Backwards.flac
  Size: 27930233 Hash: 4470B0FAF309DAB78DC78BB3EF54E72B Accuracy: -m0
  Conclusion: CDDA 100%
  Signature: F759FCA1BD67B0BA89A3DFDA95275D2EDA624559
FILE: 08 Unknown Dub.flac
  Size: 35534039 Hash: 9E7DD734FE2CCC55E7D61FFB0D5CAFD7 Accuracy: -m0
  Conclusion: CDDA 100%
  Signature: 48F050921DF505CB552EE4C257DEF76A39280CB5
#77
Your Demise / The Kids We Used To Be

Продолжительность: 00:37:56
Издатель: Rise Records
Каталог №: Rise 115
Треклист:
01 - MMX 01:54
02 - Miles Away 03:22
03 - Scared Of The Light 03:45
04 - Life Of Luxury 03:37
05 - Teenage Lust 04:27
06 - The Kids We Used To Be... 03:39
07 - G.T.F.O.O.L.R. 01:06
08 - Like A Broken Record 04:31
09 - Shine On 03:59
10 - Give Up, Get Dropped, Lose Out 03:19
11 - Xo 04:12
Код: Выделить всё
Exact Audio Copy V1.0 beta 3 from 29. August 2011
EAC extraction logfile from 29. August 2014, 23:20
Your Demise / The Kids We Used To Be…
Used drive  : HL-DT-STBD-RE BT11F   Adapter: 2  ID: 0
Read mode               : Secure
Utilize accurate stream : Yes
Defeat audio cache      : Yes
Make use of C2 pointers : No
Read offset correction                      : 667
Overread into Lead-In and Lead-Out          : No
Fill up missing offset samples with silence : Yes
Delete leading and trailing silent blocks   : No
Null samples used in CRC calculations       : Yes
Used interface                              : Native Win32 interface for Win NT & 2000
Gap handling                                : Appended to previous track
Used output format              : User Defined Encoder
Selected bitrate                : 128 kBit/s
Quality                         : High
Add ID3 tag                     : No
Command line compressor         : E:\Program Files\Exact Audio Copy\Flac\flac.exe
Additional command line options : -V -8 -T "Genre=%genre%" -T "Artist=%artist%" -T "Title=%title%" -T "Album=%albumtitle%" -T "Date=%year%" -T "Tracknumber=%tracknr%" -T "Comment=%comment%" %source%
TOC of the extracted CD
     Track |   Start  |  Length  | Start sector | End sector
    ---------------------------------------------------------
        1  |  0:00.00 |  1:54.55 |         0    |     8604
        2  |  1:54.55 |  3:22.74 |      8605    |    23828
        3  |  5:17.54 |  3:45.45 |     23829    |    40748
        4  |  9:03.24 |  3:37.53 |     40749    |    57076
        5  | 12:41.02 |  4:27.10 |     57077    |    77111
        6  | 17:08.12 |  3:39.25 |     77112    |    93561
        7  | 20:47.37 |  1:06.31 |     93562    |    98542
        8  | 21:53.68 |  4:31.06 |     98543    |   118873
        9  | 26:24.74 |  3:59.63 |    118874    |   136861
       10  | 30:24.62 |  3:19.64 |    136862    |   151850
       11  | 33:44.51 |  4:12.05 |    151851    |   170755
Track  1
     Filename E:\Music\Your Demise - Discography (FLAC)\Albums\2010 - The Kids We Used To Be\01 MMX.wav
     Pre-gap length  0:00:02.00
     Peak level 98.8 %
     Extraction speed 2.0 X
     Track quality 100.0 %
     Test CRC 2C50E4D7
     Copy CRC 2C50E4D7
     Cannot be verified as accurate (confidence 2)  [CBC1AF55], AccurateRip returned [61AD1780]  (AR v2)
     Copy OK
Track  2
     Filename E:\Music\Your Demise - Discography (FLAC)\Albums\2010 - The Kids We Used To Be\02 Miles Away.wav
     Peak level 98.8 %
     Extraction speed 2.5 X
     Track quality 100.0 %
     Test CRC E3C3EB72
     Copy CRC E3C3EB72
     Cannot be verified as accurate (confidence 2)  [2C8FAD0C], AccurateRip returned [0E6289F0]  (AR v2)
     Copy OK
Track  3
     Filename E:\Music\Your Demise - Discography (FLAC)\Albums\2010 - The Kids We Used To Be\03 Scared of the Light.wav
     Peak level 98.9 %
     Extraction speed 2.8 X
     Track quality 100.0 %
     Test CRC 5BBAC76C
     Copy CRC 5BBAC76C
     Cannot be verified as accurate (confidence 2)  [3BD2E2E5], AccurateRip returned [1704D996]  (AR v2)
     Copy OK
Track  4
     Filename E:\Music\Your Demise - Discography (FLAC)\Albums\2010 - The Kids We Used To Be\04 Life of Luxury (ft. Mike Duce).wav
     Peak level 100.0 %
     Extraction speed 2.9 X
     Track quality 100.0 %
     Test CRC 76A8119F
     Copy CRC 76A8119F
     Cannot be verified as accurate (confidence 2)  [D7763338], AccurateRip returned [1846EA76]  (AR v2)
     Copy OK
Track  5
     Filename E:\Music\Your Demise - Discography (FLAC)\Albums\2010 - The Kids We Used To Be\05 Teenage Lust.wav
     Peak level 98.8 %
     Extraction speed 3.2 X
     Track quality 100.0 %
     Test CRC 8141A7EE
     Copy CRC 8141A7EE
     Cannot be verified as accurate (confidence 2)  [6C3616E9], AccurateRip returned [ACE68B95]  (AR v2)
     Copy OK
Track  6
     Filename E:\Music\Your Demise - Discography (FLAC)\Albums\2010 - The Kids We Used To Be\06 The Kids We Used To Be….wav
     Peak level 98.8 %
     Extraction speed 3.4 X
     Track quality 100.0 %
     Test CRC F42DCA78
     Copy CRC F42DCA78
     Cannot be verified as accurate (confidence 2)  [A41801B3], AccurateRip returned [C61EA98A]  (AR v2)
     Copy OK
Track  7
     Filename E:\Music\Your Demise - Discography (FLAC)\Albums\2010 - The Kids We Used To Be\07 Get The Fuck Out of Little Rock.wav
     Peak level 98.8 %
     Extraction speed 1.9 X
     Track quality 99.8 %
     Test CRC ABCC418C
     Copy CRC ABCC418C
     Cannot be verified as accurate (confidence 2)  [171E6BE0], AccurateRip returned [28883331]  (AR v2)
     Copy OK
Track  8
     Filename E:\Music\Your Demise - Discography (FLAC)\Albums\2010 - The Kids We Used To Be\08 Like a Broken Record.wav
     Peak level 98.8 %
     Extraction speed 3.7 X
     Track quality 100.0 %
     Test CRC 00173FE3
     Copy CRC 00173FE3
     Cannot be verified as accurate (confidence 2)  [41C01278], AccurateRip returned [F5769D91]  (AR v2)
     Copy OK
Track  9
     Filename E:\Music\Your Demise - Discography (FLAC)\Albums\2010 - The Kids We Used To Be\09 Shine On (ft. Mike Hranica).wav
     Peak level 98.8 %
     Extraction speed 3.8 X
     Track quality 100.0 %
     Test CRC EE78B1C5
     Copy CRC EE78B1C5
     Cannot be verified as accurate (confidence 2)  [A2687C62], AccurateRip returned [3027B4F9]  (AR v2)
     Copy OK
Track 10
     Filename E:\Music\Your Demise - Discography (FLAC)\Albums\2010 - The Kids We Used To Be\10 Give Up, Get Dropped, Lose Out.wav
     Peak level 98.8 %
     Extraction speed 3.3 X
     Track quality 99.9 %
     Test CRC B1F85210
     Copy CRC B1F85210
     Cannot be verified as accurate (confidence 2)  [AE7C1253], AccurateRip returned [5E314124]  (AR v2)
     Copy OK
Track 11
     Filename E:\Music\Your Demise - Discography (FLAC)\Albums\2010 - The Kids We Used To Be\11 xo.wav
     Peak level 98.8 %
     Extraction speed 4.2 X
     Track quality 100.0 %
     Test CRC 3FA57EA1
     Copy CRC 3FA57EA1
     Cannot be verified as accurate (confidence 2)  [B8DA68A4], AccurateRip returned [BAE0AB2C]  (AR v2)
     Copy OK
No tracks could be verified as accurate
You may have a different pressing from the one(s) in the database
No errors occurred
End of status report
==== Log checksum 222B938E1389C8A9F849CD2321FE6E005A247DD3EADDFA4FD6689041CA646742 ====
Код: Выделить всё
REM GENRE Hardcore
REM DATE 2010
REM DISCID 8208E40B
REM COMMENT "ExactAudioCopy v1.0b3"
PERFORMER "Your Demise"
TITLE "The Kids We Used To Be…"
FILE "01 MMX.wav" WAVE
  TRACK 01 AUDIO
    TITLE "MMX"
    PERFORMER "Your Demise"
    ISRC USEK71011501
    INDEX 01 00:00:00
FILE "02 Miles Away.wav" WAVE
  TRACK 02 AUDIO
    TITLE "Miles Away"
    PERFORMER "Your Demise"
    ISRC USEK71011502
    INDEX 01 00:00:00
FILE "03 Scared of the Light.wav" WAVE
  TRACK 03 AUDIO
    TITLE "Scared of the Light"
    PERFORMER "Your Demise"
    ISRC USEK71011503
    INDEX 01 00:00:00
FILE "04 Life of Luxury (ft. Mike Duce).wav" WAVE
  TRACK 04 AUDIO
    TITLE "Life of Luxury (ft. Mike Duce)"
    PERFORMER "Your Demise"
    ISRC USEK71011504
    INDEX 01 00:00:00
FILE "05 Teenage Lust.wav" WAVE
  TRACK 05 AUDIO
    TITLE "Teenage Lust"
    PERFORMER "Your Demise"
    ISRC USEK71011505
    INDEX 01 00:00:00
FILE "06 The Kids We Used To Be….wav" WAVE
  TRACK 06 AUDIO
    TITLE "The Kids We Used To Be…"
    PERFORMER "Your Demise"
    ISRC USEK71011506
    INDEX 01 00:00:00
FILE "07 Get The Fuck Out of Little Rock.wav" WAVE
  TRACK 07 AUDIO
    TITLE "Get The Fuck Out of Little Rock"
    PERFORMER "Your Demise"
    ISRC USEK71011507
    INDEX 01 00:00:00
FILE "08 Like a Broken Record.wav" WAVE
  TRACK 08 AUDIO
    TITLE "Like a Broken Record"
    PERFORMER "Your Demise"
    ISRC USEK71011508
    INDEX 01 00:00:00
FILE "09 Shine On (ft. Mike Hranica).wav" WAVE
  TRACK 09 AUDIO
    TITLE "Shine On (ft. Mike Hranica)"
    PERFORMER "Your Demise"
    ISRC USEK71011509
    INDEX 01 00:00:00
FILE "10 Give Up, Get Dropped, Lose Out.wav" WAVE
  TRACK 10 AUDIO
    TITLE "Give Up, Get Dropped, Lose Out"
    PERFORMER "Your Demise"
    ISRC USEK71011510
    INDEX 01 00:00:00
FILE "11 xo.wav" WAVE
  TRACK 11 AUDIO
    TITLE "xo"
    PERFORMER "Your Demise"
    ISRC USEK71011511
    INDEX 01 00:00:00
Код: Выделить всё
-----------------------
DON'T MODIFY THIS FILE
-----------------------
PERFORMER: auCDtect Task Manager, ver. 1.6.0 RC1 build 1.6.0.1
Copyright (c) 2008-2010 y-soft. All rights reserved
[url=http://y-soft.org]http://y-soft.org[/url]
ANALYZER: auCDtect: CD records authenticity detector, version 0.8.2
Copyright (c) 2004 Oleg Berngardt. All rights reserved.
Copyright (c) 2004 Alexander Djourik. All rights reserved.
FILE: 03 Scared of the Light.flac
  Size: 30549740 Hash: 64D7D330F2CEC573C3BA6DC42FE127C7 Accuracy: -m0
  Conclusion: CDDA 100%
  Signature: 9254AADE431C4AE56928040B98DBA0198380A7DC
FILE: 02 Miles Away.flac
  Size: 26858450 Hash: AADA22FA8C517CCC5FB1F8A433244073 Accuracy: -m0
  Conclusion: CDDA 100%
  Signature: 440D722A617E3CC586AC0B6B8B35B8458C193FBC
FILE: 01 MMX.flac
  Size: 14886216 Hash: 6A38DFC6ACE8ADE69C54C2F14EBD0946 Accuracy: -m0
  Conclusion: CDDA 100%
  Signature: E3A027A5FC8AC9CC5021589353729D852F1B76F6
FILE: 11 xo.flac
  Size: 32178261 Hash: 89BA6DDEF617BC7E3F39C535941FC4F9 Accuracy: -m0
  Conclusion: CDDA 100%
  Signature: 82BE1D9018E34C0DBCDA12692E68E85498214D10
FILE: 10 Give Up, Get Dropped, Lose Out.flac
  Size: 26512521 Hash: F5EA3E50D3CA186472FBC1A6C8645A93 Accuracy: -m0
  Conclusion: CDDA 99%
  Signature: 35DF2EF945CC96D6A0E02889CCC32A27DA8020FB
FILE: 09 Shine On (ft. Mike Hranica).flac
  Size: 31838955 Hash: F578D81C822D2EF76AE7C3F73F97C2DC Accuracy: -m0
  Conclusion: CDDA 100%
  Signature: 2D393EB9DFF11811EF177195B224589B5D1AA98F
FILE: 08 Like a Broken Record.flac
  Size: 36056912 Hash: E0FB32DD59DD6FCA4ACAEE23666D60CD Accuracy: -m0
  Conclusion: CDDA 100%
  Signature: F21971EE5385D3146FBE248E6D24DC9A6632D1DF
FILE: 07 Get The Fuck Out of Little Rock.flac
  Size: 8243452 Hash: 95197AAA399C4123C3A7257FF2A570A6 Accuracy: -m0
  Conclusion: CDDA 100%
  Signature: C035E8380237F914D4688A62C37F2B3F13B0E047
FILE: 06 The Kids We Used To Be….flac
  Size: 29087327 Hash: 9EF6497137000623E69401F158D0A222 Accuracy: -m0
  Conclusion: CDDA 100%
  Signature: 5A3B207B25F10B84A799DEAA9F98A35C0567AEDF
FILE: 05 Teenage Lust.flac
  Size: 35648646 Hash: 744CBC5C9C6A6A7A1676808508BFCB4A Accuracy: -m0
  Conclusion: CDDA 100%
  Signature: 2F4052BFB12231AB4412A7D5C4B94E3A975096A9
FILE: 04 Life of Luxury (ft. Mike Duce).flac
  Size: 29347105 Hash: 002660ED252748248635126DF5358D58 Accuracy: -m0
  Conclusion: CDDA 99%
  Signature: 871AB2DEAA71291F866CE8B392DBB4BA7B7BAA94
#77
Your Demise / The Golden Age

Продолжительность: 00:34:23
Издатель: Visible Noise (UK)
Каталог №: Torment 182
Треклист:
01 - The Golden Age 02:28
02 - These Lights 02:47
03 - Born a Snake 02:56
04 - Push Me Under 02:34
05 - Paper Trails (feat. Dannika Webber of Evarose) 02:29
06 - Forget About Me (feat. David Wood of Down to Nothing, Terror) 02:41
07 - I'm (Not) the One (feat. Jason Aalon Butler of Letlive.) 02:45
08 - Never a Dull Moment 02:43
09 - The Colour of Envy 02:54
10 - A Decade Drifting (feat. Josh Franceschi of You Me at Six) 03:26
11 - Worthless (feat. Theo L.W, Louis BxP & Ajay B.W.P.) 04:01
Код: Выделить всё
Exact Audio Copy V1.0 beta 3 from 29. August 2011
EAC extraction logfile from 22. June 2014, 1:12
Your Demise / The Golden Age
Used drive  : HL-DT-STBD-RE BT11F   Adapter: 2  ID: 0
Read mode               : Secure
Utilize accurate stream : Yes
Defeat audio cache      : Yes
Make use of C2 pointers : No
Read offset correction                      : 667
Overread into Lead-In and Lead-Out          : No
Fill up missing offset samples with silence : Yes
Delete leading and trailing silent blocks   : No
Null samples used in CRC calculations       : Yes
Used interface                              : Native Win32 interface for Win NT & 2000
Gap handling                                : Appended to previous track
Used output format              : User Defined Encoder
Selected bitrate                : 128 kBit/s
Quality                         : High
Add ID3 tag                     : No
Command line compressor         : E:\Program Files\Exact Audio Copy\Flac\flac.exe
Additional command line options : -V -8 -T "Genre=%genre%" -T "Artist=%artist%" -T "Title=%title%" -T "Album=%albumtitle%" -T "Date=%year%" -T "Tracknumber=%tracknr%" -T "Comment=%comment%" %source%
TOC of the extracted CD
     Track |   Start  |  Length  | Start sector | End sector
    ---------------------------------------------------------
        1  |  0:00.00 |  2:28.11 |         0    |    11110
        2  |  2:28.11 |  2:47.39 |     11111    |    23674
        3  |  5:15.50 |  2:56.20 |     23675    |    36894
        4  |  8:11.70 |  2:34.66 |     36895    |    48510
        5  | 10:46.61 |  2:29.46 |     48511    |    59731
        6  | 13:16.32 |  2:41.09 |     59732    |    71815
        7  | 15:57.41 |  2:45.44 |     71816    |    84234
        8  | 18:43.10 |  2:43.58 |     84235    |    96517
        9  | 21:26.68 |  2:54.65 |     96518    |   109632
       10  | 24:21.58 |  3:26.61 |    109633    |   125143
       11  | 27:48.44 |  4:01.11 |    125144    |   143229
Track  1
     Filename E:\Music\Your Demise - The Golden Age (FLAC) (2012)\01 The Golden Age.wav
     Pre-gap length  0:00:02.00
     Peak level 99.9 %
     Extraction speed 2.2 X
     Track quality 100.0 %
     Test CRC DA1940F3
     Copy CRC DA1940F3
     Accurately ripped (confidence 4)  [5ADE6F64]  (AR v2)
     Copy OK
Track  2
     Filename E:\Music\Your Demise - The Golden Age (FLAC) (2012)\02 These Lights.wav
     Peak level 99.9 %
     Extraction speed 2.4 X
     Track quality 100.0 %
     Test CRC E57CF672
     Copy CRC E57CF672
     Accurately ripped (confidence 4)  [1C024480]  (AR v2)
     Copy OK
Track  3
     Filename E:\Music\Your Demise - The Golden Age (FLAC) (2012)\03 Born A Snake.wav
     Peak level 99.9 %
     Extraction speed 2.2 X
     Track quality 99.9 %
     Test CRC 72E49ACA
     Copy CRC 72E49ACA
     Accurately ripped (confidence 4)  [EDA8FF49]  (AR v2)
     Copy OK
Track  4
     Filename E:\Music\Your Demise - The Golden Age (FLAC) (2012)\04 Push Me Under.wav
     Peak level 99.9 %
     Extraction speed 2.7 X
     Track quality 100.0 %
     Test CRC 99693F5E
     Copy CRC 99693F5E
     Accurately ripped (confidence 4)  [D84B3BDB]  (AR v2)
     Copy OK
Track  5
     Filename E:\Music\Your Demise - The Golden Age (FLAC) (2012)\05 Paper Trails.wav
     Peak level 99.9 %
     Extraction speed 2.8 X
     Track quality 100.0 %
     Test CRC 269E7501
     Copy CRC 269E7501
     Accurately ripped (confidence 4)  [0F694433]  (AR v2)
     Copy OK
Track  6
     Filename E:\Music\Your Demise - The Golden Age (FLAC) (2012)\06 Forget About Me ft. David x Wood.wav
     Peak level 99.9 %
     Extraction speed 3.1 X
     Track quality 100.0 %
     Test CRC 508DF1C0
     Copy CRC 508DF1C0
     Accurately ripped (confidence 4)  [EF59A9BA]  (AR v2)
     Copy OK
Track  7
     Filename E:\Music\Your Demise - The Golden Age (FLAC) (2012)\07 I'm (Not) The One ft. Jason Butler.wav
     Peak level 99.9 %
     Extraction speed 3.2 X
     Track quality 100.0 %
     Test CRC 2185BCE2
     Copy CRC 2185BCE2
     Accurately ripped (confidence 4)  [4C80EF94]  (AR v2)
     Copy OK
Track  8
     Filename E:\Music\Your Demise - The Golden Age (FLAC) (2012)\08 Never A Dull Moment.wav
     Peak level 99.9 %
     Extraction speed 3.4 X
     Track quality 100.0 %
     Test CRC 1DD075B7
     Copy CRC 1DD075B7
     Accurately ripped (confidence 4)  [6986279E]  (AR v2)
     Copy OK
Track  9
     Filename E:\Music\Your Demise - The Golden Age (FLAC) (2012)\09 The Colour Of Envy.wav
     Peak level 99.9 %
     Extraction speed 3.4 X
     Track quality 100.0 %
     Test CRC F5CA7BA2
     Copy CRC F5CA7BA2
     Accurately ripped (confidence 4)  [59362398]  (AR v2)
     Copy OK
Track 10
     Filename E:\Music\Your Demise - The Golden Age (FLAC) (2012)\10 A Decade Drifting ft. Josh Franceschi.wav
     Peak level 99.9 %
     Extraction speed 3.2 X
     Track quality 99.9 %
     Test CRC 9624CA9D
     Copy CRC 9624CA9D
     Accurately ripped (confidence 4)  [1EC9DBDF]  (AR v2)
     Copy OK
Track 11
     Filename E:\Music\Your Demise - The Golden Age (FLAC) (2012)\11 Worthless ft. Theo L.W, Louis BxP & Ajay B.W.P.wav
     Peak level 100.0 %
     Extraction speed 4.1 X
     Track quality 100.0 %
     Test CRC EBEACD71
     Copy CRC EBEACD71
     Accurately ripped (confidence 4)  [2BE82C50]  (AR v2)
     Copy OK
All tracks accurately ripped
No errors occurred
End of status report
==== Log checksum 94A9F7F11C72A1F6D0B191751067D24A6A3A310D8F9006308605E0A25D7E959A ====
Код: Выделить всё
REM GENRE Punk
REM DATE 2012
REM DISCID 9C07750B
REM COMMENT "ExactAudioCopy v1.0b3"
PERFORMER "Your Demise"
TITLE "The Golden Age"
FILE "01 The Golden Age.wav" WAVE
  TRACK 01 AUDIO
    TITLE "The Golden Age"
    PERFORMER "Your Demise"
    ISRC GBEGS1200001
    INDEX 01 00:00:00
FILE "02 These Lights.wav" WAVE
  TRACK 02 AUDIO
    TITLE "These Lights"
    PERFORMER "Your Demise"
    ISRC GBEGS1200002
    INDEX 01 00:00:00
FILE "03 Born A Snake.wav" WAVE
  TRACK 03 AUDIO
    TITLE "Born A Snake"
    PERFORMER "Your Demise"
    ISRC GBEGS1200003
    INDEX 01 00:00:00
FILE "04 Push Me Under.wav" WAVE
  TRACK 04 AUDIO
    TITLE "Push Me Under"
    PERFORMER "Your Demise"
    ISRC GBEGS1200004
    INDEX 01 00:00:00
FILE "05 Paper Trails.wav" WAVE
  TRACK 05 AUDIO
    TITLE "Paper Trails"
    PERFORMER "Your Demise"
    ISRC GBEGS1200005
    INDEX 01 00:00:00
FILE "06 Forget About Me ft. David x Wood.wav" WAVE
  TRACK 06 AUDIO
    TITLE "Forget About Me ft. David x Wood"
    PERFORMER "Your Demise"
    ISRC GBEGS1200006
    INDEX 01 00:00:00
FILE "07 I'm (Not) The One ft. Jason Butler.wav" WAVE
  TRACK 07 AUDIO
    TITLE "I'm (Not) The One ft. Jason Butler"
    PERFORMER "Your Demise"
    ISRC GBEGS1200007
    INDEX 01 00:00:00
FILE "08 Never A Dull Moment.wav" WAVE
  TRACK 08 AUDIO
    TITLE "Never A Dull Moment"
    PERFORMER "Your Demise"
    ISRC GBEGS1200008
    INDEX 01 00:00:00
FILE "09 The Colour Of Envy.wav" WAVE
  TRACK 09 AUDIO
    TITLE "The Colour Of Envy"
    PERFORMER "Your Demise"
    ISRC GBEGS1200009
    INDEX 01 00:00:00
FILE "10 A Decade Drifting ft. Josh Franceschi.wav" WAVE
  TRACK 10 AUDIO
    TITLE "A Decade Drifting ft. Josh Franceschi"
    PERFORMER "Your Demise"
    ISRC GBEGS1200010
    INDEX 01 00:00:00
FILE "11 Worthless ft. Theo L.W, Louis BxP & Ajay B.W.P.wav" WAVE
  TRACK 11 AUDIO
    TITLE "Worthless ft. Theo L.W, Louis BxP & Ajay B.W.P"
    PERFORMER "Your Demise"
    ISRC GBEGS1200011
    INDEX 01 00:00:00
Код: Выделить всё
-----------------------
DON'T MODIFY THIS FILE
-----------------------
PERFORMER: auCDtect Task Manager, ver. 1.6.0 RC1 build 1.6.0.1
Copyright (c) 2008-2010 y-soft. All rights reserved
[url=http://y-soft.org]http://y-soft.org[/url]
ANALYZER: auCDtect: CD records authenticity detector, version 0.8.2
Copyright (c) 2004 Oleg Berngardt. All rights reserved.
Copyright (c) 2004 Alexander Djourik. All rights reserved.
FILE: 07 I'm (Not) The One ft. Jason Butler.flac
  Size: 22073378 Hash: BBAD8D1039D6850024CB2193116A70D0 Accuracy: -m0
  Conclusion: CDDA 100%
  Signature: 6EA6911B7C81FCC0A825A9EDF199102B49EB1F7B
FILE: 06 Forget About Me ft. David x Wood.flac
  Size: 21963060 Hash: 817D06992FC9FE1C486D849A0F7EA8C1 Accuracy: -m0
  Conclusion: CDDA 100%
  Signature: C6D7D535C319D85AC904DA32C911661E55DE65C4
FILE: 05 Paper Trails.flac
  Size: 20181812 Hash: 498D49ADCA2E06563ACF4DFE2085BE27 Accuracy: -m0
  Conclusion: CDDA 100%
  Signature: 77F35363FCEF11DB4211133E06ED688DEDF818B8
FILE: 04 Push Me Under.flac
  Size: 20208513 Hash: 65DE132A99D2970FDC7CADA36004FC3B Accuracy: -m0
  Conclusion: CDDA 100%
  Signature: 24FC0412598010C03F79ECB514B016045601230C
FILE: 03 Born A Snake.flac
  Size: 23675720 Hash: 3267E183F8D88DC6DF46DCAA3F73F75A Accuracy: -m0
  Conclusion: CDDA 100%
  Signature: BC521EB1C07D3EA08DD209012FBE12E5C9313065
FILE: 02 These Lights.flac
  Size: 22638989 Hash: EF7B9DEF2D717706F687A6CE6F14016F Accuracy: -m0
  Conclusion: CDDA 100%
  Signature: CB285EAF528B4EDB83A13F68194B1267B8272340
FILE: 01 The Golden Age.flac
  Size: 20307627 Hash: D830C1B82C348528729ABEF88812D3BD Accuracy: -m0
  Conclusion: CDDA 100%
  Signature: D34CD3A5DC1D9CBC91FCDF36FCFD68639906ECB1
FILE: 11 Worthless ft. Theo L.W, Louis BxP & Ajay B.W.P.flac
  Size: 32791812 Hash: 6760718CDF934858975A3958F37D547C Accuracy: -m0
  Conclusion: CDDA 100%
  Signature: 1DE2C76F778FB9A25743614C89BD53E5D8604759
FILE: 10 A Decade Drifting ft. Josh Franceschi.flac
  Size: 27041519 Hash: AE1E4CAA0EF36C766ABC978E182D8073 Accuracy: -m0
  Conclusion: CDDA 100%
  Signature: 2DAC92D35D60488D9032E57ABB4A2AF9F49398EC
FILE: 09 The Colour Of Envy.flac
  Size: 22810421 Hash: 42A25DB8923DD0A2143F93CB1CA1E7D2 Accuracy: -m0
  Conclusion: CDDA 100%
  Signature: E0A77BC9A8E704574D5AFFB99E063CB2C77A02E8
FILE: 08 Never A Dull Moment.flac
  Size: 22135139 Hash: 01BB63339BABF3CFBD8540BF6F195927 Accuracy: -m0
  Conclusion: CDDA 100%
  Signature: 17B12B5B86C945BCABBC5475E11F49CD97577E34
#77
Your Demise / The Blood Stays On The Blade

Продолжительность: 00:26:02
Издатель: Thirty Days Of Night Records
Каталог №: TDON024
Треклист:
01 - Too Little Too Late 01:58
02 - No Half Measures 02:30
03 - The Blood Stays On The Blade 02:59
04 - Bitterness Will Prevail 02:11
05 - Unbound By Blood 02:25
06 - Burning Ashes 14:00
Код: Выделить всё
Exact Audio Copy V1.1 from 23. June 2015
EAC extraction logfile from 2. July 2018, 17:53
Your Demise / The Blood Stays On The Blade
Used drive  : HL-DT-STBD-RE BT11F   Adapter: 1  ID: 0
Read mode               : Secure
Utilize accurate stream : Yes
Defeat audio cache      : Yes
Make use of C2 pointers : No
Read offset correction                      : 667
Overread into Lead-In and Lead-Out          : No
Fill up missing offset samples with silence : Yes
Delete leading and trailing silent blocks   : No
Null samples used in CRC calculations       : Yes
Used interface                              : Native Win32 interface for Win NT & 2000
Gap handling                                : Appended to previous track
Used output format              : User Defined Encoder
Selected bitrate                : 128 kBit/s
Quality                         : High
Add ID3 tag                     : No
Command line compressor         : C:\Program Files (x86)\FLAC\flac.exe
Additional command line options : -V -8 -T "Genre=%genre%" -T "Artist=%artist%" -T "Title=%title%" -T "Album=%albumtitle%" -T "Date=%year%" -T "Tracknumber=%tracknr%" -T "Comment=%comment%" %source%
TOC of the extracted CD
     Track |   Start  |  Length  | Start sector | End sector
    ---------------------------------------------------------
        1  |  0:00.00 |  1:57.51 |         0    |     8825
        2  |  1:57.51 |  2:30.17 |      8826    |    20092
        3  |  4:27.68 |  2:58.58 |     20093    |    33500
        4  |  7:26.51 |  2:11.19 |     33501    |    43344
        5  |  9:37.70 |  2:24.53 |     43345    |    54197
        6  | 12:02.48 | 13:59.47 |     54198    |   117169
        7  | 28:34.20 |  3:45.37 |    128570    |   145481
Track  1
     Filename F:\Your Demise - Discography (FLAC)\EP\2008 - The Blood Stays On The Blade\01 Too Little Too Late.wav
     Pre-gap length  0:00:02.00
     Peak level 100.0 %
     Extraction speed 1.4 X
     Track quality 100.0 %
     Test CRC FDD56343
     Copy CRC FDD56343
     Accurately ripped (confidence 1)  [97334086]  (AR v1)
     Copy OK
Track  2
     Filename F:\Your Demise - Discography (FLAC)\EP\2008 - The Blood Stays On The Blade\02 No Half Measures.wav
     Peak level 100.0 %
     Extraction speed 1.5 X
     Track quality 100.0 %
     Test CRC 9880F93A
     Copy CRC 9880F93A
     Accurately ripped (confidence 1)  [93C7422A]  (AR v1)
     Copy OK
Track  3
     Filename F:\Your Demise - Discography (FLAC)\EP\2008 - The Blood Stays On The Blade\03 Blood Stays On The Blade.wav
     Peak level 100.0 %
     Extraction speed 1.6 X
     Track quality 100.0 %
     Test CRC 46113D8E
     Copy CRC 46113D8E
     Accurately ripped (confidence 1)  [1D47C047]  (AR v1)
     Copy OK
Track  4
     Filename F:\Your Demise - Discography (FLAC)\EP\2008 - The Blood Stays On The Blade\04 Bitterness Will Prevail.wav
     Peak level 100.0 %
     Extraction speed 1.6 X
     Track quality 100.0 %
     Test CRC 281FC358
     Copy CRC 281FC358
     Accurately ripped (confidence 1)  [DA8A45BC]  (AR v1)
     Copy OK
Track  5
     Filename F:\Your Demise - Discography (FLAC)\EP\2008 - The Blood Stays On The Blade\05 Un-Bound By Blood.wav
     Peak level 100.0 %
     Extraction speed 1.6 X
     Track quality 100.0 %
     Test CRC 4DB88A96
     Copy CRC 4DB88A96
     Accurately ripped (confidence 1)  [7D71E89D]  (AR v1)
     Copy OK
Track  6
     Filename F:\Your Demise - Discography (FLAC)\EP\2008 - The Blood Stays On The Blade\06 Burning Ashes.wav
     Peak level 100.0 %
     Extraction speed 2.0 X
     Track quality 99.9 %
     Test CRC 83853BF7
     Copy CRC 83853BF7
     Accurately ripped (confidence 1)  [539C3FC5]  (AR v1)
     Copy OK
All tracks accurately ripped
No errors occurred
End of status report
---- CUETools DB Plugin V2.1.6
[CTDB TOCID: T_Eg2ubBY3fn1FCw0WAeX8YZFa0-] found
Submit result: T_Eg2ubBY3fn1FCw0WAeX8YZFa0- has been confirmed
Track | CTDB Status
  1   | (2/3) Accurately ripped
  2   | (3/3) Accurately ripped
  3   | (3/3) Accurately ripped
  4   | (3/3) Accurately ripped
  5   | (3/3) Accurately ripped
  6   | (3/3) Accurately ripped
==== Log checksum 0C0E9A2CBD9AEC910FC5FD2D175B93CFCED319AB854DCBA2EEFEB0238C3871C1 ====
Код: Выделить всё
REM GENRE Hardcore
REM DATE 2008
REM DISCID 5F079307
REM COMMENT "ExactAudioCopy v1.1"
PERFORMER "Your Demise"
TITLE "The Blood Stays On The Blade"
FILE "01 Too Little Too Late.wav" WAVE
  TRACK 01 AUDIO
    TITLE "Too Little Too Late"
    PERFORMER "Your Demise"
    INDEX 01 00:00:00
FILE "02 No Half Measures.wav" WAVE
  TRACK 02 AUDIO
    TITLE "No Half Measures"
    PERFORMER "Your Demise"
    INDEX 01 00:00:00
FILE "03 Blood Stays On The Blade.wav" WAVE
  TRACK 03 AUDIO
    TITLE "Blood Stays On The Blade"
    PERFORMER "Your Demise"
    INDEX 01 00:00:00
FILE "04 Bitterness Will Prevail.wav" WAVE
  TRACK 04 AUDIO
    TITLE "Bitterness Will Prevail"
    PERFORMER "Your Demise"
    INDEX 01 00:00:00
FILE "05 Un-Bound By Blood.wav" WAVE
  TRACK 05 AUDIO
    TITLE "Un-Bound By Blood"
    PERFORMER "Your Demise"
    INDEX 01 00:00:00
FILE "06 Burning Ashes.wav" WAVE
  TRACK 06 AUDIO
    TITLE "Burning Ashes"
    PERFORMER "Your Demise"
    INDEX 01 00:00:00
Код: Выделить всё
-----------------------
DON'T MODIFY THIS FILE
-----------------------
PERFORMER: auCDtect Task Manager, ver. 1.6.0 RC1 build 1.6.0.1
Copyright (c) 2008-2010 y-soft. All rights reserved
[url=http://y-soft.org]http://y-soft.org[/url]
ANALYZER: auCDtect: CD records authenticity detector, version 0.8.2
Copyright (c) 2004 Oleg Berngardt. All rights reserved.
Copyright (c) 2004 Alexander Djourik. All rights reserved.
FILE: 01 Too Little Too Late.flac
  Size: 13022734 Hash: 1F1C8D49C1EB8354A168AE4AC3538C8E Accuracy: -m0
  Conclusion: MPEG 95%
  Signature: 6AA2AB53CBA97E485CAE24F34A0512F3F4D67B48
FILE: 02 No Half Measures.flac
  Size: 17532641 Hash: CDDE122E775C6808B91E7C92FF2C1880 Accuracy: -m0
  Conclusion: MPEG 95%
  Signature: 22ED632825740EDD541EC0176D4B8C4647E5470E
FILE: 03 Blood Stays On The Blade.flac
  Size: 22761381 Hash: 595F673A073E9C6A086395CF6F7D19FD Accuracy: -m0
  Conclusion: MPEG 95%
  Signature: 207AB962D46347500FBE89F44926E18740BF0811
FILE: 04 Bitterness Will Prevail.flac
  Size: 15692762 Hash: 854872DD779C107B01F03726A9037BA1 Accuracy: -m0
  Conclusion: MPEG 95%
  Signature: 2970CEB6DFD857F79CCE2189700509A2BADEF557
FILE: 05 Un-Bound By Blood.flac
  Size: 17673380 Hash: AF9636FF9C6AB95F90C77E8A284E0940 Accuracy: -m0
  Conclusion: MPEG 95%
  Signature: 1A6ACB8E3B657AB191AEBF744D588B1ACB1629EA
FILE: 06 Burning Ashes.flac
  Size: 43044514 Hash: 58058AF2D186C2B529B378F2EF432A7B Accuracy: -m0
  Conclusion: MPEG 95%
  Signature: 6F5521723408AA94A1A955EAD61D5B4606A7443F
#77
Your Demise / These Lights

Продолжительность: 00:02:52
Издатель: Visible Noise
Каталог №: TORMENT160CDP
Треклист:
01 - These Lights 02:52
Код: Выделить всё
Exact Audio Copy V1.0 beta 3 from 29. August 2011
EAC extraction logfile from 29. August 2014, 23:53
Your Demise / These Lights (Single)
Used drive  : HL-DT-STBD-RE BT11F   Adapter: 2  ID: 0
Read mode               : Secure
Utilize accurate stream : Yes
Defeat audio cache      : Yes
Make use of C2 pointers : No
Read offset correction                      : 667
Overread into Lead-In and Lead-Out          : No
Fill up missing offset samples with silence : Yes
Delete leading and trailing silent blocks   : No
Null samples used in CRC calculations       : Yes
Used interface                              : Native Win32 interface for Win NT & 2000
Gap handling                                : Appended to previous track
Used output format              : User Defined Encoder
Selected bitrate                : 128 kBit/s
Quality                         : High
Add ID3 tag                     : No
Command line compressor         : E:\Program Files\Exact Audio Copy\Flac\flac.exe
Additional command line options : -V -8 -T "Genre=%genre%" -T "Artist=%artist%" -T "Title=%title%" -T "Album=%albumtitle%" -T "Date=%year%" -T "Tracknumber=%tracknr%" -T "Comment=%comment%" %source%
TOC of the extracted CD
     Track |   Start  |  Length  | Start sector | End sector
    ---------------------------------------------------------
        1  |  0:00.00 |  2:52.40 |         0    |    12939
Track  1
     Filename E:\Music\Your Demise - Discography (FLAC)\Singles\2012 - These Lights\01 These Lights.wav
     Pre-gap length  0:00:02.00
     Peak level 99.9 %
     Extraction speed 2.3 X
     Track quality 100.0 %
     Test CRC 8936EE87
     Copy CRC 8936EE87
     Cannot be verified as accurate (confidence 1)  [F75E3668], AccurateRip returned [6E4A8C91]  (AR v2)
     Copy OK
No tracks could be verified as accurate
You may have a different pressing from the one(s) in the database
No errors occurred
End of status report
==== Log checksum 7A7B09ECBED4311859FC381A82C70C3E22A7999CC0965574B1DC554C0F6640FB ====
Код: Выделить всё
REM GENRE Hardcore
REM DATE 2012
REM DISCID 0200AC01
REM COMMENT "ExactAudioCopy v1.0b3"
PERFORMER "Your Demise"
TITLE "These Lights (Single)"
FILE "01 These Lights.wav" WAVE
  TRACK 01 AUDIO
    TITLE "These Lights"
    PERFORMER "Your Demise"
    INDEX 01 00:00:00
Код: Выделить всё
-----------------------
DON'T MODIFY THIS FILE
-----------------------
PERFORMER: auCDtect Task Manager, ver. 1.6.0 RC1 build 1.6.0.1
Copyright (c) 2008-2010 y-soft. All rights reserved
[url=http://y-soft.org]http://y-soft.org[/url]
ANALYZER: auCDtect: CD records authenticity detector, version 0.8.2
Copyright (c) 2004 Oleg Berngardt. All rights reserved.
Copyright (c) 2004 Alexander Djourik. All rights reserved.
FILE: 01 These Lights.flac
  Size: 22750487 Hash: 777C88283A1B3067CB8E7B6709262009 Accuracy: -m0
  Conclusion: CDDA 100%
  Signature: A494FFB5CB5A26FCEFD61FDE0BEFB4D52ED62724
#77
Your Demise / Forget About Me (Promo)

Продолжительность: 00:02:48
Издатель: Visible Noise
Каталог №: TORMENT179CDP
Треклист:
01 - Forget About Me 02:48
Код: Выделить всё
Exact Audio Copy V1.0 beta 3 from 29. August 2011
EAC extraction logfile from 29. August 2014, 23:47
Your Demise / Forget About Me (Promo CDr)
Used drive  : HL-DT-STBD-RE BT11F   Adapter: 2  ID: 0
Read mode               : Secure
Utilize accurate stream : Yes
Defeat audio cache      : Yes
Make use of C2 pointers : No
Read offset correction                      : 667
Overread into Lead-In and Lead-Out          : No
Fill up missing offset samples with silence : Yes
Delete leading and trailing silent blocks   : No
Null samples used in CRC calculations       : Yes
Used interface                              : Native Win32 interface for Win NT & 2000
Gap handling                                : Appended to previous track
Used output format              : User Defined Encoder
Selected bitrate                : 128 kBit/s
Quality                         : High
Add ID3 tag                     : No
Command line compressor         : E:\Program Files\Exact Audio Copy\Flac\flac.exe
Additional command line options : -V -8 -T "Genre=%genre%" -T "Artist=%artist%" -T "Title=%title%" -T "Album=%albumtitle%" -T "Date=%year%" -T "Tracknumber=%tracknr%" -T "Comment=%comment%" %source%
TOC of the extracted CD
     Track |   Start  |  Length  | Start sector | End sector
    ---------------------------------------------------------
        1  |  0:00.00 |  2:48.12 |         0    |    12611
Track  1
     Filename E:\Music\Your Demise - Discography (FLAC)\Singles\2012 - Forget About Me (Promo)\01 Forget About Me.wav
     Pre-gap length  0:00:02.00
     Peak level 99.9 %
     Extraction speed 2.2 X
     Track quality 100.0 %
     Test CRC EF255B39
     Copy CRC EF255B39
     Track not present in AccurateRip database
     Copy OK
None of the tracks are present in the AccurateRip database
No errors occurred
End of status report
==== Log checksum 8D088311342D9908E7A029A2110A1A6D43174D642F015C3B15A6ABF7C8FC9FB9 ====
Код: Выделить всё
REM GENRE Hardcore
REM DATE 2012
REM DISCID 0200A801
REM COMMENT "ExactAudioCopy v1.0b3"
PERFORMER "Your Demise"
TITLE "Forget About Me (Promo CDr)"
FILE "01 Forget About Me.wav" WAVE
  TRACK 01 AUDIO
    TITLE "Forget About Me"
    PERFORMER "Your Demise"
    INDEX 01 00:00:00
Код: Выделить всё
-----------------------
DON'T MODIFY THIS FILE
-----------------------
PERFORMER: auCDtect Task Manager, ver. 1.6.0 RC1 build 1.6.0.1
Copyright (c) 2008-2010 y-soft. All rights reserved
[url=http://y-soft.org]http://y-soft.org[/url]
ANALYZER: auCDtect: CD records authenticity detector, version 0.8.2
Copyright (c) 2004 Oleg Berngardt. All rights reserved.
Copyright (c) 2004 Alexander Djourik. All rights reserved.
FILE: 01 Forget About Me.flac
  Size: 22186479 Hash: 1215DEB42D3DC69ECBB172D8F7575EA1 Accuracy: -m0
  Conclusion: CDDA 100%
  Signature: D4DA52D659F66403289CC5376FAF718B3BF37096
Время раздачи: ~ 24/7
 
Не забывайте говорить Спасибо. Не уходите с раздачи!   
Торрент: Зарегистрирован [22 июн 2014, 07:22] Скачать торрент
Скачать торрент
[ Размер 25.15 КБ / Просмотров 4 ]
Статус:
Проверен
 
.torrent скачан: 0 раз
Хэш: f52fbdc51e2fc71ffc9dbddcd34d7e39130e1f53
Размер: 1.34 ГБ (1 442 465 416 байт)
Стать Автором раздачи
 
 
Раздал: 0 байт
Скачал: 0 байт
Ратио: Inf.
Сообщения: 487468
Зарегистрирован: 17 апр 2014, 13:57


  • Похожие торренты
    Ответы
    Просмотры
    Последнее сообщение

Вернуться в Hardcore (lossless)

Ресурс не предоставляет электронные версии произведений, а занимается лишь коллекционированием и каталогизацией ссылок, присылаемых и публикуемых на форуме нашими читателями. Если вы являетесь правообладателем какого-либо представленного материала и не желаете чтобы ссылка на него находилась в нашем каталоге, свяжитесь с нами и мы незамедлительно удалим её. Файлы для обмена на трекере предоставлены пользователями сайта, и администрация не несёт ответственности за их содержание. Просьба не заливать файлы, защищенные авторскими правами, а также файлы нелегального содержания!
cron