[Телеканал «ЖИВИ!»] Бодитоник с Ольгой Янчук и Александром Мироненко. Сезон 2. Занятия 1-24 из 24 [2011, Фитнес, бодитоник, SATRip, RUS] (Видеоурок)

 
 Статистика раздачи 
Размер: 5.35 ГБ   |  Зарегистрирован: 02 июл 2018, 20:09   |   .torrent скачан: 0 раз
Сидеров: 1  [ 0 байт/сек ]     Личеров: 0  [ 0 байт/сек ]  
  

[Телеканал «ЖИВИ!»] Бодитоник с Ольгой Янчук и Александром Мироненко. Сезон 2. Занятия 1-24 из 24 [2011, Фитнес, бодитоник, SATRip, RUS] (Видеоурок)

Сообщение Nakazhu » 02 июл 2018, 23:19

Бодитоник с Ольгой Янчук и Александром Мироненко. Сезон 2. Занятия 1-24 из 24
Автор: Телеканал «ЖИВИ!»
Страна: Россия
Тематика: Фитнес, бодитоник
Тип раздаваемого материала: Видеоурок
Продолжительность: 24 урока по 25 минут
Год выпуска: 2011
Язык: Русский
Перевод: Не требуется
Описание: Авторский фитнес-комплекс из разнообразных упражнений на развитие силы, выносливости, гибкости и координации движений. Бодитоник – комплекс 25-минутных уроков – быстро и результативно помогает адаптироваться к высокому темпу жизни. Инструкторы – Ольга Янчук и Александр Мироненко.
Качество: SATRip
Формат: AVI
Видео кодек: H.264
Аудио кодек: MP3
Видео: MPEG4 Video (H264) 640x480 4:3 1200kbps 29,970fps
Аудио: MP3 64,0kbps 44,1kHz 2ch
Полное имя : \Бодитоник с Ольгой Янчук и Александром Мироненко. Сезон 2. Занятия 1-24 из 24\01 - Бодитоник - Сезон 2 - Со стулом.avi
Формат : AVI
Формат/Информация : Audio Video Interleave
Размер файла : 228 Мбайт
Продолжительность : 24 м. 59 с.
Общий поток : 1276 Кбит/сек
Библиотека кодирования : VirtualDub build 18160/release
Видео
Идентификатор : 0
Формат : MPEG-4 Visual
Профиль формата : Simple@L1
Параметр BVOP формата : Нет
Параметр QPel формата : Нет
Параметр GMC формата : Без точки перехода
Параметр матрицы формата : Default (H.263)
Идентификатор кодека : DX50
Идентификатор кодека/Подсказка : DivX 5
Продолжительность : 24 м. 59 с.
Битрейт : 1200 Кбит/сек
Ширина : 640 пикселей
Высота : 480 пикселей
Соотношение сторон : 4:3
Частота кадров : 29,970 (30000/1001) кадров/сек
Цветовое пространство : YUV
Субдискретизация насыщенности : 4:2:0
Битовая глубина : 8 бит
Тип развёртки : Прогрессивная
Метод сжатия : С потерями
Бит/(Пиксели*Кадры) : 0.130
Размер потока : 214 Мбайт (94%)
Библиотека кодирования : Lavc51.40.4
Аудио
Идентификатор : 1
Формат : MPEG Audio
Версия формата : Version 1
Профиль формата : Layer 3
Настройки формата : Joint stereo / MS Stereo
Режим : Joint stereo
Расширение режима : MS Stereo
Идентификатор кодека : 55
Идентификатор кодека/Подсказка : MP3
Продолжительность : 24 м. 59 с.
Вид битрейта : Постоянный
Битрейт : 64,0 Кбит/сек
Каналы : 2 канала
Частота : 44,1 КГц
Метод сжатия : С потерями
Задержка видео : 11 мс.
Размер потока : 11,4 Мбайт (5%)
Выравнивание : Разделение по промежуткам
Продолжительность промежутка : 33 мс. (1,00 видеокадр)
Время предзагрузки промежутка : 500 мс.


 
Не забывайте говорить Спасибо. Не уходите с раздачи!   
Торрент: Зарегистрирован [02 июл 2018, 20:09] Скачать торрент
Скачать торрент
[ Размер 16.62 КБ / Просмотров 9 ]
Статус:
Проверен
 
.torrent скачан: 0 раз
Хэш: 97ea05cd7a6d346834cb11a855623811c391016d
Размер: 5.35 ГБ (5 742 247 762 байт)
Стать Автором раздачи
 
 
Раздал: 0 байт
Скачал: 0 байт
Ратио: Inf.
Сообщения: 487468
Зарегистрирован: 17 апр 2014, 13:57


  • Похожие торренты
    Ответы
    Просмотры
    Последнее сообщение

Вернуться в Фитнес - Разум и Тело

Ресурс не предоставляет электронные версии произведений, а занимается лишь коллекционированием и каталогизацией ссылок, присылаемых и публикуемых на форуме нашими читателями. Если вы являетесь правообладателем какого-либо представленного материала и не желаете чтобы ссылка на него находилась в нашем каталоге, свяжитесь с нами и мы незамедлительно удалим её. Файлы для обмена на трекере предоставлены пользователями сайта, и администрация не несёт ответственности за их содержание. Просьба не заливать файлы, защищенные авторскими правами, а также файлы нелегального содержания!
cron