Звезда Плейбоя / Звезда 80 / Star 80 (Боб Фосси / Bob Fosse) [1983, США, драма, биография, DVDRip-AVC] MVO (Варус Видео) + DVO (НТВ) + Sub Eng + Original Eng

 
 Статистика раздачи 
Размер: 2.19 ГБ   |  Зарегистрирован: 03 дек 2015, 12:47   |   .torrent скачан: 0 раз
Сидеров: 1  [ 0 байт/сек ]     Личеров: 0  [ 0 байт/сек ]  
  

Звезда Плейбоя / Звезда 80 / Star 80 (Боб Фосси / Bob Fosse) [1983, США, драма, биография, DVDRip-AVC] MVO (Варус Видео) + DVO (НТВ) + Sub Eng + Original Eng

Сообщение Nakazhu » 02 июл 2018, 21:30

Звезда Плейбоя / Звезда 80 / Star 80
Страна: США
Жанр: драма, биография
Год выпуска: 1983
Продолжительность: 01:43:25
Перевод 1: Профессиональный (многоголосый закадровый) Варус Видео
Перевод 2: Профессиональный (двухголосый закадровый) НТВ
Субтитры: английские
Оригинальная аудиодорожка: английский
Режиссер: Боб Фосси / Bob Fosse
В ролях: Мэриэл Хемингуэй, Эрик Робертс, Клифф Робертсон, Кэррол Бейкер, Роджер Рис, Дэвид Кленнон, Джош Мостел, Лиза Гордон, Сидни Миллер, Кит Хефнер...
Описание: Как коротка была яркая, но трагическая жизнь «звезды» журнального бизнеса Дороти Стрэттен — «лица обложки» Playboy-80, успевшей стать «девушкой американской мечты», но оказавшейся словно птицей, подстреленной на взлете.
Это реально произошедшая историю провинциальной школьницы, в мгновение ока превратившейся в «секс-бомбу», едва вкусившей плоды славы и уже готовившейся к карьере кинозвезды…
Доп. информация: За оцифровку VHS от "Варус Видео" спасибо BOLiK_Ltd. За оцифровку перевода НТВ спасибо RockNIK, в переводе сделано 2 вставки Варус Видео (00:00:41-00:01:57, 00:31:16-00:31:21) Синхронизация звука - Dreven.
Сэмпл: http://sendfile.su/1428646
Качество видео: DVDRip-AVC
Формат видео: MKV
Видео: 716x478 (4:3) @ 716x538, 23.976 fps, AVC, ~2428 Kbps, 0.296 bits/pixel
Аудио 1: Russian, 48.0 KHz, AC3, 2 ch, 224 Kbps - Варус Видео
Аудио 2: Russian, 48.0 KHz, AC3, 2 ch, 192 Kbps - НТВ
Аудио 3: English, 48.0 KHz, AC3, 1 ch, 192 Kbps
avs4x26x.exe: -L x264_64.exe --pass 2 --bitrate 2428 --preset medium --tune film --ref 10 --merange 32 --bframes 10 --direct auto --b-adapt 2 --trellis 2 --no-fast-pskip --no-dct-decimate --psy-rd 1.00:0.20 --subme 10 --me umh --no-mbtree --vbv-bufsize 62500 --vbv-maxrate 50000 --partitions p8x8,b8x8,i4x4,i8x8 --sar 8:9 --stats
raw [info]: 716x478p 8:9 @ 24000/1001 fps (cfr)
x264 [info]: using SAR=8/9
x264 [info]: using cpu capabilities: MMX2 SSE2Fast LZCNT
x264 [info]: profile High, level 4.1
x264 [info]: frame I:1201 Avg QP:18.43 size: 53276
x264 [info]: frame P:29367 Avg QP:20.47 size: 24015
x264 [info]: frame B:118206 Avg QP:22.29 size: 9422
x264 [info]: consecutive B-frames: 1.5% 1.6% 4.6% 14.5% 18.2% 45.7% 8.9% 2.8% 1.0% 0.6% 0.5%
x264 [info]: mb I I16..4: 4.2% 88.4% 7.4%
x264 [info]: mb P I16..4: 1.0% 32.2% 1.1% P16..4: 30.0% 23.6% 11.7% 0.0% 0.0% skip: 0.3%
x264 [info]: mb B I16..4: 0.2% 3.4% 0.1% B16..8: 41.7% 12.3% 3.0% direct:13.3% skip:26.0% L0:40.0% L1:37.4% BI:22.6%
x264 [info]: 8x8 transform intra:93.1% inter:61.7%
x264 [info]: direct mvs spatial:97.5% temporal:2.5%
x264 [info]: coded y,uvDC,uvAC intra: 95.0% 81.7% 48.8% inter: 42.9% 32.1% 7.7%
x264 [info]: i16 v,h,dc,p: 50% 18% 14% 18%
x264 [info]: i8 v,h,dc,ddl,ddr,vr,hd,vl,hu: 10% 9% 16% 8% 11% 10% 11% 10% 14%
x264 [info]: i4 v,h,dc,ddl,ddr,vr,hd,vl,hu: 12% 13% 4% 8% 14% 13% 13% 10% 13%
x264 [info]: i8c dc,h,v,p: 35% 29% 21% 15%
x264 [info]: Weighted P-Frames: Y:14.9% UV:2.8%
x264 [info]: ref P L0: 36.8% 10.3% 19.1% 8.2% 7.2% 4.9% 4.9% 2.8% 3.0% 2.4% 0.4% 0.0%
x264 [info]: ref B L0: 75.1% 11.2% 4.8% 2.7% 2.0% 1.7% 1.4% 0.7% 0.3%
x264 [info]: ref B L1: 95.7% 4.3%
x264 [info]: kb/s:2427.62
x264 [total]: encoded 148774 frames, 10.31 fps, 2427.62 kb/s
General
Unique ID : 129964338247772208533604342448788571450 (0x61C6389843F11950C682726F97EF853A)
Complete name : C:\Star 80.mkv
Format : Matroska
Format version : Version 4 / Version 2
File size : 2.19 GiB
Duration : 1 h 43 min
Overall bit rate : 3 038 kb/s
Encoded date : UTC 2018-07-01 12:10:10
Writing application : mkvmerge v23.0.0 ('The Bride Said No') 64-bit
Writing library : libebml v1.3.6 + libmatroska v1.4.9
Video
ID : 1
Format : AVC
Format/Info : Advanced Video Codec
Format profile : High@L4.1
Format settings : CABAC / 10 Ref Frames
Format settings, CABAC : Yes
Format settings, ReFrames : 10 frames
Codec ID : V_MPEG4/ISO/AVC
Duration : 1 h 43 min
Bit rate : 2 428 kb/s
Width : 716 pixels
Height : 478 pixels
Display aspect ratio : 4:3
Frame rate mode : Constant
Frame rate : 23.976 (24000/1001) FPS
Color space : YUV
Chroma subsampling : 4:2:0
Bit depth : 8 bits
Scan type : Progressive
Bits/(Pixel*Frame) : 0.296
Stream size : 1.75 GiB (80%)
Writing library : x264 core 152 r2851 ba24899
Encoding settings : cabac=1 / ref=10 / deblock=1:-1:-1 / analyse=0x3:0x113 / me=umh / subme=10 / psy=1 / psy_rd=1.00:0.20 / mixed_ref=1 / me_range=32 / chroma_me=1 / trellis=2 / 8x8dct=1 / cqm=0 / deadzone=21,11 / fast_pskip=0 / chroma_qp_offset=-3 / threads=6 / lookahead_threads=1 / sliced_threads=0 / nr=0 / decimate=0 / interlaced=0 / bluray_compat=0 / constrained_intra=0 / bframes=10 / b_pyramid=2 / b_adapt=2 / b_bias=0 / direct=3 / weightb=1 / open_gop=0 / weightp=2 / keyint=250 / keyint_min=23 / scenecut=40 / intra_refresh=0 / rc_lookahead=40 / rc=2pass / mbtree=0 / bitrate=2428 / ratetol=1.0 / qcomp=0.60 / qpmin=0 / qpmax=69 / qpstep=4 / cplxblur=20.0 / qblur=0.5 / vbv_maxrate=50000 / vbv_bufsize=62500 / nal_hrd=none / filler=0 / ip_ratio=1.40 / pb_ratio=1.30 / aq=1:1.00
Language : English
Default : Yes
Forced : No
Audio #1
ID : 2
Format : AC-3
Format/Info : Audio Coding 3
Codec ID : A_AC3
Duration : 1 h 43 min
Bit rate mode : Constant
Bit rate : 224 kb/s
Channel(s) : 2 channels
Channel positions : Front: L R
Sampling rate : 48.0 kHz
Frame rate : 31.250 FPS (1536 SPF)
Bit depth : 16 bits
Compression mode : Lossy
Stream size : 166 MiB (7%)
Title : Варус Видео
Language : Russian
Service kind : Complete Main
Default : Yes
Forced : No
Audio #2
ID : 3
Format : AC-3
Format/Info : Audio Coding 3
Codec ID : A_AC3
Duration : 1 h 43 min
Bit rate mode : Constant
Bit rate : 192 kb/s
Channel(s) : 2 channels
Channel positions : Front: L R
Sampling rate : 48.0 kHz
Frame rate : 31.250 FPS (1536 SPF)
Bit depth : 16 bits
Compression mode : Lossy
Stream size : 142 MiB (6%)
Title : НТВ
Language : Russian
Service kind : Complete Main
Default : No
Forced : No
Audio #3
ID : 4
Format : AC-3
Format/Info : Audio Coding 3
Codec ID : A_AC3
Duration : 1 h 43 min
Bit rate mode : Constant
Bit rate : 192 kb/s
Channel(s) : 1 channel
Channel positions : Front: C
Sampling rate : 48.0 kHz
Frame rate : 31.250 FPS (1536 SPF)
Bit depth : 16 bits
Compression mode : Lossy
Stream size : 142 MiB (6%)
Language : English
Service kind : Complete Main
Default : No
Forced : No
Text
ID : 5
Format : UTF-8
Codec ID : S_TEXT/UTF8
Codec ID/Info : UTF-8 Plain Text
Duration : 1 h 40 min
Bit rate : 80 b/s
Count of elements : 2179
Stream size : 58.9 KiB (0%)
Language : English
Default : No
Forced : No
Menu
00:00:00.000 : :1 Picture perfect Credits.
00:03:07.500 : :2 Snider: not easy to take.
00:06:55.134 : :3 Not gonna forget me.
00:09:32.634 : :4 Gonna get it for you (Da Ya Think I'm Sexy).
00:13:40.834 : :5 No good at it.
00:16:40.001 : :6 Prom night (Just the Way You Are).
00:21:29.802 : :7 Photo shoot.
00:25:34.236 : :8 Too many directors (Let the Good Times Roll).
00:28:34.436 : :9 This feeling about Dorothy.
00:31:53.770 : :10 Meeting Hefner.
00:36:37.437 : :11 For life?
00:41:08.437 : :12 First impression.
00:45:45.138 : :13 Worries about first impression.
00:48:35.505 : :14 The personality of a pimp.
00:50:26.473 : :15 Spenders small and big.
00:55:43.673 : :16 Sharing house with Geb.
00:58:41.007 : :17 Not for exercise.
01:00:45.741 : :18 Meeting Aram (Swing, Swing, Swing).
01:04:56.774 : :19 "We can't go back."
01:08:53.475 : :20 Relationship with the director.
01:13:20.109 : :21 The more he hangs on.
01:16:44.509 : :22 Alienation of affection.
01:19:26.776 : :23 A little crazy.
01:24:05.143 : :24 Wired.
01:28:41.777 : :25 Break cleanly.
01:32:19.478 : :26 "They're killing me."
01:36:43.912 : :27 "They did this."
01:38:20.912 : :28 "You won't forget Paul Snider."
01:40:17.012 : :29 End Credits.
 
Не забывайте говорить Спасибо. Не уходите с раздачи!   
Торрент: Зарегистрирован [03 дек 2015, 12:47] Скачать торрент
Скачать торрент
[ Размер 11.41 КБ / Просмотров 2 ]
Статус:
Проверен
 
.torrent скачан: 0 раз
Хэш: d3d44ba555ff37b47ca02588d6ed8965a3cc067a
Размер: 2.19 ГБ (2 356 434 745 байт)
Стать Автором раздачи
 
 
Раздал: 0 байт
Скачал: 0 байт
Ратио: Inf.
Сообщения: 487468
Зарегистрирован: 17 апр 2014, 13:57


  • Похожие торренты
    Ответы
    Просмотры
    Последнее сообщение

Вернуться в Зарубежные фильмы до 1990 года

Ресурс не предоставляет электронные версии произведений, а занимается лишь коллекционированием и каталогизацией ссылок, присылаемых и публикуемых на форуме нашими читателями. Если вы являетесь правообладателем какого-либо представленного материала и не желаете чтобы ссылка на него находилась в нашем каталоге, свяжитесь с нами и мы незамедлительно удалим её. Файлы для обмена на трекере предоставлены пользователями сайта, и администрация не несёт ответственности за их содержание. Просьба не заливать файлы, защищенные авторскими правами, а также файлы нелегального содержания!
cron