(Avantgarde, Noise Rock, Post Punk, Skin Graft) [CD] Lake Of Dracula - Дискография [2xCD] [S / T & Skeletal Remains] 1997-2006, FLAC (tracks+.cue, tracks), lossless

 
 Статистика раздачи 
Размер: 510.71 МБ   |  Зарегистрирован: 20 мар 2012, 00:02   |   .torrent скачан: 0 раз
Сидеров: 1  [ 0 байт/сек ]     Личеров: 0  [ 0 байт/сек ]  
  

(Avantgarde, Noise Rock, Post Punk, Skin Graft) [CD] Lake Of Dracula - Дискография [2xCD] [S / T & Skeletal Remains] 1997-2006, FLAC (tracks+.cue, tracks), lossless

Сообщение Nakazhu » 01 июл 2018, 23:49

Lake Of Dracula / Дискография

Жанр: Avantgarde, Noise Rock, Post Punk
Страна-производитель диска: US, France
Год издания: 1997-2006
Издатель (лейбл): Skin Graft Records, Savage Land
Номер по каталогу: GR 39, SL04
Страна: Chicago, Illinois, US
Аудиокодек: FLAC (*.flac)
Тип рипа: tracks+.cue, tracks
Битрейт аудио: lossless
Продолжительность: 01:16:29
Источник (релизер): What.cd, CapitaineRimbaud, Red, honeymoney
Наличие сканов в содержимом раздачи: web

Lake of Dracula, a side project for former and current members of Scissor Girls, U.S. Maple and the Flying Luttenbachers, debuted in mid-1997 with a self-titled album for the experimental/noise label Skin Graft. The band comprises vocalist Marlon Magas, guitarist Weasel Walter, drummer Heather M. and the Manhattanite on bass.
#77Label: Skin Graft Records
Catalog#: GR 39
Продолжительность: 00:35:53
Трэклист:
01. Lake of Dracula 1:18
02. Plague of Frogs 1:31
03. Biographers of the Flaming Druglords 2:04
04. Cherries and Socks 2:24
05. Blues Fantastique 1:31
06. The Servo-Motor 3:00
07. Green-Glassed Moves 2:39
08. Violators 2:37
09. Dracula Killed Frankenstein 2:00
10. Coconut Wine 2:02
11. The Carpet (old ghost) 3:14
12. Henry Clay 2:38
13. The Arctic Cats 2:10
14. Memories of Me 2:23
15. Piss II 2:20
16. Lake of Dracula 1:58
Состав:
James "Marlon" Magas (Couch, Magas)
Weasel Walter (The Flying Luttenbachers, XBXRX)
Heather M. (The Scissor Girls)
"The Manhattanite" (a.k.a. Al Johnson from U.S. Maple)
Jessica Ruffins (Jaks, Sea of Tombs)

Код: Выделить всё
X Lossless Decoder version 20100424 (118.0)
XLD extraction logfile from 2010-04-27 18:21:23 -0400
Lake Of Dracula / Lake Of Dracula
Used drive : SONY DVD RW DRU-810A (revision 3.0b)
Use cdparanoia mode     : YES (CDParanoia III 10.2 engine)
Disable audio cache     : OK for the drive with cache less than 2750KB
Make use of C2 pointers : NO
Read offset correction  : 618
Max retry count         : 100
TOC of the extracted CD
     Track |   Start  |  Length  | Start sector | End sector
    ---------------------------------------------------------
        1  | 00:00:00 | 01:18:04 |         0    |     5853
        2  | 01:18:04 | 01:31:01 |      5854    |    12679
        3  | 02:49:05 | 02:04:47 |     12680    |    22026
        4  | 04:53:52 | 02:24:56 |     22027    |    32882
        5  | 07:18:33 | 01:31:13 |     32883    |    39720
        6  | 08:49:46 | 03:00:52 |     39721    |    53272
        7  | 11:50:23 | 02:39:07 |     53273    |    65204
        8  | 14:29:30 | 02:37:32 |     65205    |    77011
        9  | 17:06:62 | 02:00:30 |     77012    |    86041
       10  | 19:07:17 | 02:02:55 |     86042    |    95246
       11  | 21:09:72 | 03:14:13 |     95247    |   109809
       12  | 24:24:10 | 02:38:49 |    109810    |   121708
       13  | 27:02:59 | 02:10:01 |    121709    |   131459
       14  | 29:12:60 | 02:23:01 |    131460    |   142185
       15  | 31:35:61 | 02:20:12 |    142186    |   152697
       16  | 33:55:73 | 01:57:26 |    152698    |   161498
All Tracks
    Album gain             : -6.46 dB
    Peak                   : 0.993683
Track 01
    Filename : /Volumes/La Fritsch/XLD/01 - Lake Of Dracula.flac
    Pre-gap length : 00:02:00
    Track gain             : -6.41 dB
    Peak                   : 0.988586
    CRC32 hash (test run)  : 41735641
    CRC32 hash             : 41735641
    CRC32 hash (skip zero) : CD99433D
    AccurateRip signature  : EC5DF584
        ->Accurately ripped! (confidence 2)
    Statistics
        Read error                           : 0
        Skipped (treated as error)           : 0
        Edge jitter error (maybe fixed)      : 0
        Atom jitter error (maybe fixed)      : 0
        Drift error (maybe fixed)            : 0
        Dropped bytes error (maybe fixed)    : 0
        Duplicated bytes error (maybe fixed) : 0
        Inconsistency in error sectors       : 0
Track 02
    Filename : /Volumes/La Fritsch/XLD/02 - Plague Of Frogs.flac
    Track gain             : -6.99 dB
    Peak                   : 0.988586
    CRC32 hash (test run)  : D9D8A625
    CRC32 hash             : D9D8A625
    CRC32 hash (skip zero) : DED7A55B
    AccurateRip signature  : 360E31DF
        ->Accurately ripped! (confidence 2)
    Statistics
        Read error                           : 0
        Skipped (treated as error)           : 0
        Edge jitter error (maybe fixed)      : 0
        Atom jitter error (maybe fixed)      : 0
        Drift error (maybe fixed)            : 0
        Dropped bytes error (maybe fixed)    : 0
        Duplicated bytes error (maybe fixed) : 0
        Inconsistency in error sectors       : 0
Track 03
    Filename : /Volumes/La Fritsch/XLD/03 - Biographers Of The Flaming Druglords.flac
    Track gain             : -6.79 dB
    Peak                   : 0.988586
    CRC32 hash (test run)  : 2FFAB51B
    CRC32 hash             : 2FFAB51B
    CRC32 hash (skip zero) : 7604E683
    AccurateRip signature  : 0E01F3B2
        ->Accurately ripped! (confidence 2)
    Statistics
        Read error                           : 0
        Skipped (treated as error)           : 0
        Edge jitter error (maybe fixed)      : 0
        Atom jitter error (maybe fixed)      : 0
        Drift error (maybe fixed)            : 0
        Dropped bytes error (maybe fixed)    : 0
        Duplicated bytes error (maybe fixed) : 0
        Inconsistency in error sectors       : 0
Track 04
    Filename : /Volumes/La Fritsch/XLD/04 - Cherries And Socks.flac
    Track gain             : -7.27 dB
    Peak                   : 0.988586
    CRC32 hash (test run)  : ACA74B9E
    CRC32 hash             : ACA74B9E
    CRC32 hash (skip zero) : 8F6302B6
    AccurateRip signature  : AE53907E
        ->Accurately ripped! (confidence 2)
    Statistics
        Read error                           : 0
        Skipped (treated as error)           : 0
        Edge jitter error (maybe fixed)      : 0
        Atom jitter error (maybe fixed)      : 0
        Drift error (maybe fixed)            : 0
        Dropped bytes error (maybe fixed)    : 0
        Duplicated bytes error (maybe fixed) : 0
        Inconsistency in error sectors       : 0
Track 05
    Filename : /Volumes/La Fritsch/XLD/05 - Blues Fantastique.flac
    Track gain             : -6.89 dB
    Peak                   : 0.988586
    CRC32 hash (test run)  : 61F9C873
    CRC32 hash             : 61F9C873
    CRC32 hash (skip zero) : FD79B08D
    AccurateRip signature  : 1C1C2C5B
        ->Accurately ripped! (confidence 2)
    Statistics
        Read error                           : 0
        Skipped (treated as error)           : 0
        Edge jitter error (maybe fixed)      : 0
        Atom jitter error (maybe fixed)      : 0
        Drift error (maybe fixed)            : 0
        Dropped bytes error (maybe fixed)    : 0
        Duplicated bytes error (maybe fixed) : 0
        Inconsistency in error sectors       : 0
Track 06
    Filename : /Volumes/La Fritsch/XLD/06 - The Servo-Motor.flac
    Track gain             : -5.09 dB
    Peak                   : 0.988586
    CRC32 hash (test run)  : 37D5E7D6
    CRC32 hash             : 37D5E7D6
    CRC32 hash (skip zero) : 81728E32
    AccurateRip signature  : C2D9C176
        ->Accurately ripped! (confidence 2)
    Statistics
        Read error                           : 0
        Skipped (treated as error)           : 0
        Edge jitter error (maybe fixed)      : 0
        Atom jitter error (maybe fixed)      : 0
        Drift error (maybe fixed)            : 0
        Dropped bytes error (maybe fixed)    : 0
        Duplicated bytes error (maybe fixed) : 0
        Inconsistency in error sectors       : 0
Track 07
    Filename : /Volumes/La Fritsch/XLD/07 - Green-Glassed Moves.flac
    Track gain             : -5.35 dB
    Peak                   : 0.988586
    CRC32 hash (test run)  : F9BA99A4
    CRC32 hash             : F9BA99A4
    CRC32 hash (skip zero) : 449259A5
    AccurateRip signature  : 0525FCB5
        ->Accurately ripped! (confidence 2)
    Statistics
        Read error                           : 0
        Skipped (treated as error)           : 0
        Edge jitter error (maybe fixed)      : 0
        Atom jitter error (maybe fixed)      : 0
        Drift error (maybe fixed)            : 0
        Dropped bytes error (maybe fixed)    : 0
        Duplicated bytes error (maybe fixed) : 0
        Inconsistency in error sectors       : 0
Track 08
    Filename : /Volumes/La Fritsch/XLD/08 - Violators.flac
    Track gain             : -4.95 dB
    Peak                   : 0.988556
    CRC32 hash (test run)  : 0FB40D57
    CRC32 hash             : 0FB40D57
    CRC32 hash (skip zero) : 6314DB09
    AccurateRip signature  : 412224DD
        ->Accurately ripped! (confidence 2)
    Statistics
        Read error                           : 0
        Skipped (treated as error)           : 0
        Edge jitter error (maybe fixed)      : 0
        Atom jitter error (maybe fixed)      : 0
        Drift error (maybe fixed)            : 0
        Dropped bytes error (maybe fixed)    : 0
        Duplicated bytes error (maybe fixed) : 0
        Inconsistency in error sectors       : 0
Track 09
    Filename : /Volumes/La Fritsch/XLD/09 - Dracula Killed Frankenstein.flac
    Track gain             : -6.66 dB
    Peak                   : 0.988586
    CRC32 hash (test run)  : 4625ED2A
    CRC32 hash             : 4625ED2A
    CRC32 hash (skip zero) : F13C06E4
    AccurateRip signature  : 2AD9B2E4
        ->Accurately ripped! (confidence 2)
    Statistics
        Read error                           : 0
        Skipped (treated as error)           : 0
        Edge jitter error (maybe fixed)      : 0
        Atom jitter error (maybe fixed)      : 0
        Drift error (maybe fixed)            : 0
        Dropped bytes error (maybe fixed)    : 0
        Duplicated bytes error (maybe fixed) : 0
        Inconsistency in error sectors       : 0
Track 10
    Filename : /Volumes/La Fritsch/XLD/10 - Coconut Wine.flac
    Track gain             : -6.17 dB
    Peak                   : 0.988586
    CRC32 hash (test run)  : 064AC781
    CRC32 hash             : 064AC781
    CRC32 hash (skip zero) : 74EC8837
    AccurateRip signature  : D61D2F4F
        ->Accurately ripped! (confidence 2)
    Statistics
        Read error                           : 0
        Skipped (treated as error)           : 0
        Edge jitter error (maybe fixed)      : 0
        Atom jitter error (maybe fixed)      : 0
        Drift error (maybe fixed)            : 0
        Dropped bytes error (maybe fixed)    : 0
        Duplicated bytes error (maybe fixed) : 0
        Inconsistency in error sectors       : 0
Track 11
    Filename : /Volumes/La Fritsch/XLD/11 - The Carpet (Old Ghost).flac
    Track gain             : -5.91 dB
    Peak                   : 0.993683
    CRC32 hash (test run)  : C5061B7C
    CRC32 hash             : C5061B7C
    CRC32 hash (skip zero) : 091203B7
    AccurateRip signature  : 6CED7A83
        ->Accurately ripped! (confidence 2)
    Statistics
        Read error                           : 0
        Skipped (treated as error)           : 0
        Edge jitter error (maybe fixed)      : 0
        Atom jitter error (maybe fixed)      : 0
        Drift error (maybe fixed)            : 0
        Dropped bytes error (maybe fixed)    : 0
        Duplicated bytes error (maybe fixed) : 0
        Inconsistency in error sectors       : 0
Track 12
    Filename : /Volumes/La Fritsch/XLD/12 - Henry Clay.flac
    Track gain             : -7.69 dB
    Peak                   : 0.988586
    CRC32 hash (test run)  : 10343840
    CRC32 hash             : 10343840
    CRC32 hash (skip zero) : 24F449B5
    AccurateRip signature  : 95D02137
        ->Accurately ripped! (confidence 2)
    Statistics
        Read error                           : 0
        Skipped (treated as error)           : 0
        Edge jitter error (maybe fixed)      : 0
        Atom jitter error (maybe fixed)      : 0
        Drift error (maybe fixed)            : 0
        Dropped bytes error (maybe fixed)    : 0
        Duplicated bytes error (maybe fixed) : 0
        Inconsistency in error sectors       : 0
Track 13
    Filename : /Volumes/La Fritsch/XLD/13 - The Arctic Cats.flac
    Track gain             : -5.32 dB
    Peak                   : 0.988586
    CRC32 hash (test run)  : 76B5A058
    CRC32 hash             : 76B5A058
    CRC32 hash (skip zero) : 662E5A76
    AccurateRip signature  : 590F797B
        ->Accurately ripped! (confidence 2)
    Statistics
        Read error                           : 0
        Skipped (treated as error)           : 0
        Edge jitter error (maybe fixed)      : 0
        Atom jitter error (maybe fixed)      : 0
        Drift error (maybe fixed)            : 0
        Dropped bytes error (maybe fixed)    : 0
        Duplicated bytes error (maybe fixed) : 0
        Inconsistency in error sectors       : 0
Track 14
    Filename : /Volumes/La Fritsch/XLD/14 - Memories Of Me.flac
    Track gain             : -6.77 dB
    Peak                   : 0.988586
    CRC32 hash (test run)  : BF96EA89
    CRC32 hash             : BF96EA89
    CRC32 hash (skip zero) : B2165AE3
    AccurateRip signature  : AE6BCB91
        ->Accurately ripped! (confidence 2)
    Statistics
        Read error                           : 0
        Skipped (treated as error)           : 0
        Edge jitter error (maybe fixed)      : 0
        Atom jitter error (maybe fixed)      : 0
        Drift error (maybe fixed)            : 0
        Dropped bytes error (maybe fixed)    : 0
        Duplicated bytes error (maybe fixed) : 0
        Inconsistency in error sectors       : 0
Track 15
    Filename : /Volumes/La Fritsch/XLD/15 - Piss II.flac
    Track gain             : -5.79 dB
    Peak                   : 0.991669
    CRC32 hash (test run)  : 3A8106AB
    CRC32 hash             : 3A8106AB
    CRC32 hash (skip zero) : 405F8373
    AccurateRip signature  : E4086DED
        ->Accurately ripped! (confidence 2)
    Statistics
        Read error                           : 0
        Skipped (treated as error)           : 0
        Edge jitter error (maybe fixed)      : 0
        Atom jitter error (maybe fixed)      : 0
        Drift error (maybe fixed)            : 0
        Dropped bytes error (maybe fixed)    : 0
        Duplicated bytes error (maybe fixed) : 0
        Inconsistency in error sectors       : 0
Track 16
    Filename : /Volumes/La Fritsch/XLD/16 - Lake Of Dracula.flac
    Track gain             : -4.55 dB
    Peak                   : 0.988556
    CRC32 hash (test run)  : 90B987D2
    CRC32 hash             : 90B987D2
    CRC32 hash (skip zero) : DF3DF36F
    AccurateRip signature  : 77335E8E
        ->Accurately ripped! (confidence 2)
    Statistics
        Read error                           : 0
        Skipped (treated as error)           : 0
        Edge jitter error (maybe fixed)      : 0
        Atom jitter error (maybe fixed)      : 0
        Drift error (maybe fixed)            : 0
        Dropped bytes error (maybe fixed)    : 0
        Duplicated bytes error (maybe fixed) : 0
        Inconsistency in error sectors       : 0
No errors occurred
End of status report
Код: Выделить всё
TITLE "Lake Of Dracula"
PERFORMER "Lake Of Dracula"
REM GENRE "Rock"
FILE "CDImage.wav" WAVE
  TRACK 01 AUDIO
    TITLE "Lake Of Dracula"
    INDEX 01 00:00:00
  TRACK 02 AUDIO
    TITLE "Plague Of Frogs"
    INDEX 01 01:18:04
  TRACK 03 AUDIO
    TITLE "Biographers Of The Flaming Druglords"
    INDEX 01 02:49:05
  TRACK 04 AUDIO
    TITLE "Cherries And Socks"
    INDEX 01 04:53:52
  TRACK 05 AUDIO
    TITLE "Blues Fantastique"
    INDEX 01 07:18:33
  TRACK 06 AUDIO
    TITLE "The Servo-Motor"
    INDEX 01 08:49:46
  TRACK 07 AUDIO
    TITLE "Green-Glassed Moves"
    INDEX 01 11:50:23
  TRACK 08 AUDIO
    TITLE "Violators"
    INDEX 01 14:29:30
  TRACK 09 AUDIO
    TITLE "Dracula Killed Frankenstein"
    INDEX 01 17:06:62
  TRACK 10 AUDIO
    TITLE "Coconut Wine"
    INDEX 01 19:07:17
  TRACK 11 AUDIO
    TITLE "The Carpet (Old Ghost)"
    INDEX 01 21:09:72
  TRACK 12 AUDIO
    TITLE "Henry Clay"
    INDEX 01 24:24:10
  TRACK 13 AUDIO
    TITLE "The Arctic Cats"
    INDEX 01 27:02:59
  TRACK 14 AUDIO
    TITLE "Memories Of Me"
    INDEX 01 29:12:60
  TRACK 15 AUDIO
    TITLE "Piss II"
    INDEX 01 31:35:61
  TRACK 16 AUDIO
    TITLE "Lake Of Dracula"
    INDEX 01 33:55:73
Код: Выделить всё
AUDIOCHECKER v2.0 beta (build 457) - by Dester - opdester@freemail.hu
~~~~~~~~~~~~~~~~~~~~~~~~~~~~~~~~~~
-=== DO NOT EDIT THIS FILE! ===-
Path: ...\Lake Of Dracula – 1997 - Lake Of Dracula
01 -=- 01 - Lake Of Dracula.flac -=- CDDA (100%)
02 -=- 02 - Plague Of Frogs.flac -=- CDDA (100%)
03 -=- 03 - Biographers Of The Flaming Druglords.flac -=- CDDA (100%)
04 -=- 04 - Cherries And Socks.flac -=- CDDA (100%)
05 -=- 05 - Blues Fantastique.flac -=- CDDA (100%)
06 -=- 06 - The Servo-Motor.flac -=- CDDA (100%)
07 -=- 07 - Green-Glassed Moves.flac -=- CDDA (100%)
08 -=- 08 - Violators.flac -=- CDDA (100%)
09 -=- 09 - Dracula Killed Frankenstein.flac -=- CDDA (100%)
10 -=- 10 - Coconut Wine.flac -=- CDDA (100%)
11 -=- 11 - The Carpet (Old Ghost).flac -=- CDDA (100%)
12 -=- 12 - Henry Clay.flac -=- CDDA (100%)
13 -=- 13 - The Arctic Cats.flac -=- CDDA (100%)
14 -=- 14 - Memories Of Me.flac -=- CDDA (100%)
15 -=- 15 - Piss II.flac -=- CDDA (100%)
16 -=- 16 - Lake Of Dracula.flac -=- CDDA (99%)
Summary 99,94% CDDA
209410132
#77Label: Savage Land
Catalog#: SL04
Продолжительность: 00:40:36
Трэклист:
01. Four Teachers (03:32)
02. Plague of Frogs (01:20)
03. Biographers of the Flaming Druglords (02:03)
04. Cherries and Socks (02:20)
05. Blues Fantastique (01:27)
06. The Servo-Motor (02:59)
07. Violators (03:06)
08. Dracula Killed Frankenstein (01:58)
09. Coconut Wine (02:06)
10. The Carpet (03:27)
11. Henry Clay (02:27)
12. The Arctic Cats (02:23)
13. Memories of Me (02:16)
14. Piss II (02:10)
15. Lake of Dracula (01:03)
16. Plague of Frogs (01:40)
17. Untitled (01:00)
18. Four Teachers (03:12)
A collection of previously unreleased material and rare compilation and single tracks.
Tracks 1-15 recorded live at FKJC, Los Altos, CA on May 28, 1998.
Track 16 recorded live at Fireside Bowl, Chicago on March 29, 1996.
Track 18 recorded by Weasel Walter circa early 1997.
Код: Выделить всё
fooCDtect - foobar2000 + auCDtect, baralgin.
auCDtect: CD records authenticity detector, version 0.8.2
Copyright (c) 2004 Oleg Berngardt. All rights reserved.
Copyright (c) 2004 Alexander Djourik. All rights reserved.
     mode: 0
===========================================
    Track: 01. Four Teachers
  Quality: CDDA 100%
===========================================
    Track: 02. Plague of Frogs
  Quality: CDDA 100%
===========================================
    Track: 03. Biographers of the Flaming Druglords
  Quality: CDDA 100%
===========================================
    Track: 04. Cherries and Socks
  Quality: CDDA 100%
===========================================
    Track: 05. Blues Fantastique
  Quality: CDDA 100%
===========================================
    Track: 06. The Servo-Motor
  Quality: CDDA 100%
===========================================
    Track: 07. Violators
  Quality: CDDA 100%
===========================================
    Track: 08. Dracula Killed Frankenstein
  Quality: CDDA 100%
===========================================
    Track: 09. Coconut Wine
  Quality: CDDA 100%
===========================================
    Track: 10. The Carpet
  Quality: CDDA 100%
===========================================
    Track: 11. Henry Clay
  Quality: CDDA 100%
===========================================
    Track: 12. The Arctic Cats
  Quality: CDDA 100%
===========================================
    Track: 13. Memories of Me
  Quality: CDDA 100%
===========================================
    Track: 14. Piss II
  Quality: CDDA 100%
===========================================
    Track: 15. Lake of Dracula
  Quality: CDDA  99%
===========================================
    Track: 16. Plague of Frogs
  Quality: CDDA 100%
===========================================
    Track: 17. Untitled
  Quality: CDDA 100%
===========================================
    Track: 18. Four Teachers
  Quality: CDDA 100%
===========================================
Чикагская группа образовалась в 1995-ом и является одной из влиятельных банд современной нойз рок сцены, потому что многие музыканты собрали группы и стали играть и строить эту самую сцену, в состав входили участники Flying Luttenbachers, Scissor Girls, Jaks и US Maple. Группа играет грязный, вспыльчивый нойз рок середины 90х, с надрывным вокалом. У них всего лишь один альбом, Skeletal Remains является сборником неизданных вещей. Rusty Lily
Jessica, Weasel, Heather and Marlon
Named for a 1971 Z-Grade Japanese vampire movie, Lake of Dracula resorts to sonic methods of mayhem not dissimilar to the cinematic scare tactics employed by its namesake. In other words, the band is cheap, fast, and out of control -- and it goes straight for the jugular. Its members all come from spiritually likeminded ensembles: guitarist and resident cynic Weasel Walter is a veteran of the avant-jazz/punk/noise ensemble The Flying Luttenbachers, frantic percussionist Heather M is from the Scissor Girls, and the maniacal, pompodoured, bespectacled frontman, Marlon Magas, was once a member of the U.S. Couch and is known throughout the land for his half-crazed rantings. The group has also welcomed members of US Maple and Jaks into the fold. It's a good thing these folks have music, because given their general proclivities, one could imagine them locked up in some sort of maximum security situation. What I'm saying is they're crazy. The collective makes abrasive, almost unlistenable music that exemplifies the so-called Chicago No Wave scene. But it's kind of fun, in a psychobilly Cramps sort of way -- full of manic stacatto rhythms, screeching guitars, and Magas's lunatic howling and groaning. The collective debuted in 1997 with a self-titled full-length (which produced "Biographers of the Flaming Druglords"). Lake of Dracula has yet to release another album, as its members are busy with other projects.
Jesse Ashlock
The Scissor Girls - 2 CD's - 1996 & 1997
Bride of No No - Дискография - 2000 & 2003
U.S. Maple (US Maple) - Discography - 1995-2003 (5CD)
Flying Luttenbachers
 
Не забывайте говорить Спасибо. Не уходите с раздачи!   
Торрент: Зарегистрирован [20 мар 2012, 00:02] Скачать торрент
Скачать торрент
[ Размер 23.56 КБ / Просмотров 4 ]
Статус:
Проверен
 
.torrent скачан: 0 раз
Хэш: 519f1a0d2b9873efa9be68c3818dc301e1ef41a0
Размер: 510.71 МБ (535 518 744 байт)
Стать Автором раздачи
 
 
Раздал: 0 байт
Скачал: 0 байт
Ратио: Inf.
Сообщения: 487468
Зарегистрирован: 17 апр 2014, 13:57


  • Похожие торренты
    Ответы
    Просмотры
    Последнее сообщение

Вернуться в Indie, Post-Rock & Post-Punk (lossless)

Ресурс не предоставляет электронные версии произведений, а занимается лишь коллекционированием и каталогизацией ссылок, присылаемых и публикуемых на форуме нашими читателями. Если вы являетесь правообладателем какого-либо представленного материала и не желаете чтобы ссылка на него находилась в нашем каталоге, свяжитесь с нами и мы незамедлительно удалим её. Файлы для обмена на трекере предоставлены пользователями сайта, и администрация не несёт ответственности за их содержание. Просьба не заливать файлы, защищенные авторскими правами, а также файлы нелегального содержания!
cron