Любовь исцеляющая [2012, торжество Православия, DVDRip]

 
 Статистика раздачи 
Размер: 347.58 МБ   |  Зарегистрирован: 01 июл 2018, 19:43   |   .torrent скачан: 0 раз
Сидеров: 1  [ 0 байт/сек ]     Личеров: 0  [ 0 байт/сек ]  
  

Любовь исцеляющая [2012, торжество Православия, DVDRip]

Сообщение Nakazhu » 01 июл 2018, 22:48

Любовь исцеляющая
Дата/Год выпуска: 2012
Страна
: Россия
Жанр: торжество Православия
Продолжительность: 00:29:37
Перевод: Не требуется
Русские субтитры: нет
Оригинальная аудиодорожка: русский
Описание: Этот фильм - фильм-исповедь, исповедь молодой девушки, прожившей часть своей жизни без любви, в отчаянии и страхе, однажды сорвавшейся в пропасть под названием «героин», и чуть было не оставшейся в ней навсегда. Но происходит чудо: девушка просит о помощи свою маму, и ... попадает в православный женский центр в п.Торфяное. Именно здесь отогреется ее сердце, прояснится ум, очистится душа. А помогут ей любовь и внимание отца Сергия Белькова, руководителя центра, монахини Николаи, опытной духовной наставницы, живущих рядом девушек, красота природы вокруг. Все это есть не что иное, как сама Любовь Божия, исцеляющая и дающая нам жизнь. Господь не оставляет просящих о помощи.
Вместе с героиней фильма мы проживаем день за днем ее жизнь в Торфяном. Не сразу дается молитва, поначалу утомляют ежедневные труд и послушания, но с помощью советов батюшки Сергия и монахини Николаи, поддержки сотрудников центра потихоньку все налаживается и приходит чувство удовлетворения от результатов своего труда, просыпается истинная женская природа, возвращаются мягкость, заботливость, чистота, происходит полное преображение души.
Фильм будет интересен всем, кто хочет понять, как работает православная духовно-ориентированная программа «Обитель исцеления» не на бумаге, а в реальности нашей жизни.
качество: DVDRip
формат: AVI
Видео: MPEG4, XviD, 704x384 (16:9), 29.970 fps, 1 534 Kbps (0.189 bit/pixel)
Аудио: MP3, 44.1 KHz, 2 ch, 96.0 Kbps, CBR
Код: Выделить всё
General
Complete name                            : G:\Любовь исцеляющая.avi
Format                                   : AVI
Format/Info                              : Audio Video Interleave
File size                                : 348 MiB
Duration                                 : 29mn 37s
Overall bit rate                         : 1 640 Kbps
Video
ID                                       : 0
Format                                   : MPEG-4 Visual
Format profile                           : Advanced Simple@L5
Format settings, BVOP                    : 1
Format settings, QPel                    : No
Format settings, GMC                     : No warppoints
Format settings, Matrix                  : Default (H.263)
Codec ID                                 : XVID
Codec ID/Hint                            : XviD
Duration                                 : 29mn 37s
Bit rate                                 : 1 533 Kbps
Width                                    : 704 pixels
Height                                   : 384 pixels
Display aspect ratio                     : 1.85:1
Frame rate                               : 29.970 fps
Color space                              : YUV
Chroma subsampling                       : 4:2:0
Bit depth                                : 8 bits
Scan type                                : Progressive
Compression mode                         : Lossy
Bits/(Pixel*Frame)                       : 0.189
Stream size                              : 325 MiB (93%)
Writing library                          : XviD 1.1.2 (UTC 2006-11-01)
Audio
ID                                       : 1
Format                                   : MPEG Audio
Format version                           : Version 1
Format profile                           : Layer 3
Mode                                     : Dual mono
Codec ID                                 : 55
Codec ID/Hint                            : MP3
Duration                                 : 29mn 37s
Bit rate mode                            : Constant
Bit rate                                 : 96.0 Kbps
Channel(s)                               : 2 channels
Sampling rate                            : 44.1 KHz
Compression mode                         : Lossy
Stream size                              : 20.3 MiB (6%)
Alignment                                : Split accross interleaves
Interleave, duration                     : 33 ms (1.00 video frame)
Interleave, preload duration             : 500 ms
 
Не забывайте говорить Спасибо. Не уходите с раздачи!   
Торрент: Зарегистрирован [01 июл 2018, 19:43] Скачать торрент
Скачать торрент
[ Размер 14.04 КБ / Просмотров 0 ]
Статус:
Проверен
 
.torrent скачан: 0 раз
Хэш: 8939c955447dcf2091c38178434cbc1159c6cfae
Размер: 347.58 МБ (364 461 366 байт)
Стать Автором раздачи
 
 
Раздал: 0 байт
Скачал: 0 байт
Ратио: Inf.
Сообщения: 487468
Зарегистрирован: 17 апр 2014, 13:57


  • Похожие торренты
    Ответы
    Просмотры
    Последнее сообщение

Вернуться в Вера и религия (видео)

Ресурс не предоставляет электронные версии произведений, а занимается лишь коллекционированием и каталогизацией ссылок, присылаемых и публикуемых на форуме нашими читателями. Если вы являетесь правообладателем какого-либо представленного материала и не желаете чтобы ссылка на него находилась в нашем каталоге, свяжитесь с нами и мы незамедлительно удалим её. Файлы для обмена на трекере предоставлены пользователями сайта, и администрация не несёт ответственности за их содержание. Просьба не заливать файлы, защищенные авторскими правами, а также файлы нелегального содержания!
cron