Родной земли минувшая судьба [2012, торжество Православия, DVDRip]

 
 Статистика раздачи 
Размер: 1.99 ГБ   |  Зарегистрирован: 01 июл 2018, 19:30   |   .torrent скачан: 0 раз
Сидеров: 1  [ 0 байт/сек ]     Личеров: 0  [ 0 байт/сек ]  
  

Родной земли минувшая судьба [2012, торжество Православия, DVDRip]

Сообщение Nakazhu » 01 июл 2018, 22:47

Родной земли минувшая судьба
Дата/Год выпуска: 2012
Страна
: Россия
Жанр: торжество Православия
Продолжительность: 02:55:38
Перевод: Не требуется
Русские субтитры: нет
Оригинальная аудиодорожка: русский
Описание: Встреча с протоиереем Артемием Владимировым в Республиканском Дворце культуры и профсоюзов (г. Минск)
Темы:
- почему важно знать истинную историю, а не вымышленную
- о чем молился Святой князь Владимир когда народ крестился в Днепре
- за что гибли люди в 1-ю мировую войну
- в чем смысл духовного подвига страстотерпца Николая
- как разобраться в оранжевых, красных и прочих революциях
- приход антихриста и конец истории
- нужно ли уезжать за хорошей жизнью, или жить там, где родился
- какой будет Россия через 10-20 лет
- ювенальная юстиция, стоит ли ее бояться
- какое место в Церкви занимает православная журналистика
- как совместить духовную жизнь и внешние дела благочестия
- почему славянские народы страдают больше всех
качество: DVDRip
формат: AVI
Видео: MPEG4, XviD, 720x544 (4:3), 25.000 fps, 1 492 Kbps (0.152 bit/pixel)
Аудио: AC-3, 48.0 KHz, 2 ch, 128 Kbps, CBR
Код: Выделить всё
General
Complete name                            : G:\Родной земли минувшая судьба.avi
Format                                   : AVI
Format/Info                              : Audio Video Interleave
File size                                : 1.99 GiB
Duration                                 : 2h 55mn
Overall bit rate                         : 1 626 Kbps
Video
ID                                       : 0
Format                                   : MPEG-4 Visual
Format profile                           : Advanced Simple@L5
Format settings, BVOP                    : 1
Format settings, QPel                    : No
Format settings, GMC                     : No warppoints
Format settings, Matrix                  : Default (H.263)
Codec ID                                 : XVID
Codec ID/Hint                            : XviD
Duration                                 : 2h 55mn
Bit rate                                 : 1 492 Kbps
Width                                    : 720 pixels
Height                                   : 544 pixels
Display aspect ratio                     : 4:3
Frame rate                               : 25.000 fps
Color space                              : YUV
Chroma subsampling                       : 4:2:0
Bit depth                                : 8 bits
Scan type                                : Progressive
Compression mode                         : Lossy
Bits/(Pixel*Frame)                       : 0.152
Stream size                              : 1.83 GiB (92%)
Writing library                          : XviD 64
Audio
ID                                       : 1
Format                                   : AC-3
Format/Info                              : Audio Coding 3
Mode extension                           : CM (complete main)
Format settings, Endianness              : Big
Codec ID                                 : 2000
Duration                                 : 2h 55mn
Bit rate mode                            : Constant
Bit rate                                 : 128 Kbps
Channel(s)                               : 2 channels
Channel positions                        : Front: L R
Sampling rate                            : 48.0 KHz
Bit depth                                : 16 bits
Compression mode                         : Lossy
Delay relative to video                  : 40ms
Stream size                              : 161 MiB (8%)
Alignment                                : Split accross interleaves
Interleave, duration                     : 500 ms (12.50 video frames)
Interleave, preload duration             : 500 ms
 
Не забывайте говорить Спасибо. Не уходите с раздачи!   
Торрент: Зарегистрирован [01 июл 2018, 19:30] Скачать торрент
Скачать торрент
[ Размер 20.43 КБ / Просмотров 0 ]
Статус:
Проверен
 
.torrent скачан: 0 раз
Хэш: c5fcd299b584b46a05acc5d9222311a994088720
Размер: 1.99 ГБ (2 141 563 906 байт)
Стать Автором раздачи
 
 
Раздал: 0 байт
Скачал: 0 байт
Ратио: Inf.
Сообщения: 487468
Зарегистрирован: 17 апр 2014, 13:57


  • Похожие торренты
    Ответы
    Просмотры
    Последнее сообщение

Вернуться в Вера и религия (видео)

Ресурс не предоставляет электронные версии произведений, а занимается лишь коллекционированием и каталогизацией ссылок, присылаемых и публикуемых на форуме нашими читателями. Если вы являетесь правообладателем какого-либо представленного материала и не желаете чтобы ссылка на него находилась в нашем каталоге, свяжитесь с нами и мы незамедлительно удалим её. Файлы для обмена на трекере предоставлены пользователями сайта, и администрация не несёт ответственности за их содержание. Просьба не заливать файлы, защищенные авторскими правами, а также файлы нелегального содержания!
cron