Конан-разрушитель / Conan the Destroyer (Ричард Флайшер / Richard Fleischer) [1984, США, фэнтези, боевик, приключения, BDRip] DVO (НТВ+ / Рен-ТВ)

 
 Статистика раздачи 
Размер: 1.42 ГБ   |  Зарегистрирован: 17 июн 2018, 11:06   |   .torrent скачан: 0 раз
Сидеров: 1  [ 0 байт/сек ]     Личеров: 0  [ 0 байт/сек ]  
  

Конан-разрушитель / Conan the Destroyer (Ричард Флайшер / Richard Fleischer) [1984, США, фэнтези, боевик, приключения, BDRip] DVO (НТВ+ / Рен-ТВ)

Сообщение Nakazhu » 01 июл 2018, 07:49

Конан-разрушитель

Conan the Destroyer
Год выпуска: 1984
Страна: США
Жанр: фэнтези, боевик, приключения
Продолжительность: 01:41:15
Перевод: Профессиональный (двухголосый закадровый) - НТВ+ | Текст читают Ольга Голованова и Виталий Петров.
Субтитры: отсутствуют
Режиссёр: Ричард Флайшер: Richard Fleischer
В ролях: Арнольд Шварценеггер, Грейс Джонс, Уилт Чемберлен, Мако, Трейси Уолтер, Сара Дуглас, Оливия д’Або, Пэт Роуч, Джефф Кори, Свен-Оле Торсен
О фильме: Идеальная картина в жанре фэнтэзи с мечами, волшебниками и колдунами. Сюжет очень прост. Сексапильная королева нанимает Конана сопровождать юную принцессу в далекий замок, где находится драгоценный камень, способный высвободить могущественные и таинственные силы.
Коварная королева приказала своему воину убить Конана, когда задание будет выполнено, и вернуть домой принцессу, не нарушив ее девственности, дабы можно было принести ее в жертву. В пути группа сходится с чернокожей и взрывной воительницей. Длинноногая дикарка способна одна уложить множество врагов.
Одно приключение сменяет другое. Съемки, схватки, поединки, трюки поражают воображение. Великолепно воссоздается атмосфера приключений в неизвестные времена, в неизвестно каком измерении…

Данный перевод появляется на трекере впервые.
За запись перевода с телеканала AMC благодарность xfiles.

Семпл: http://sendfile.su/1428358
Качество: BDRip
Формат: AVI
Видео: XviD, 720x304 (2,35:1), 23,976 fps, ~1666 kbps, 0.318 bit/pixel
Аудио #1: [RUS] 48 kHz, AC3, 1 ch, 128 kbps
Аудио #2: [ENG] 48 kHz, AC3, 2 ch, 192 kbps
Код: Выделить всё
General
Complete name               : F:\Konan.razrushitel.1984.BDRip.MVO.Ren-TV.avi
Format                      : AVI
Format/Info                 : Audio Video Interleave
File size                   : 1.39 GiB
Duration                    : 1 h 41 min
Overall bit rate            : 1 969 kb/s
Movie name                  : Конан-разрушитель / Conan the Destroyer [1984]
Director                    : Юpист
Writing application         : VirtualDubMod 1.5.10.2 (build 2540/release)
Writing library             : VirtualDubMod build 2540/release
Copyright                   : RG "All films" [rutracker.org]
Video
ID                          : 0
Format                      : MPEG-4 Visual
Format profile              : Advanced Simple@L5
Format settings             : BVOP1 / Custom Matrix
Format settings, BVOP       : 1
Format settings, QPel       : No
Format settings, GMC        : No warppoints
Format settings, Matrix     : Custom
Codec ID                    : XVID
Codec ID/Hint               : XviD
Duration                    : 1 h 41 min
Bit rate                    : 1 666 kb/s
Width                       : 720 pixels
Height                      : 304 pixels
Display aspect ratio        : 2.35:1
Frame rate                  : 23.976 (24000/1001) FPS
Color space                 : YUV
Chroma subsampling          : 4:2:0
Bit depth                   : 8 bits
Scan type                   : Progressive
Compression mode            : Lossy
Bits/(Pixel*Frame)          : 0.318
Stream size                 : 1.18 GiB (85%)
Writing library             : XviD 72
Audio #1
ID                          : 1
Format                      : AC-3
Format/Info                 : Audio Coding 3
Codec ID                    : 2000
Duration                    : 1 h 41 min
Bit rate mode               : Constant
Bit rate                    : 128 kb/s
Channel(s)                  : 1 channel
Channel positions           : Front: C
Sampling rate               : 48.0 kHz
Frame rate                  : 31.250 FPS (1536 SPF)
Bit depth                   : 16 bits
Compression mode            : Lossy
Stream size                 : 69.5 MiB (5%)
Alignment                   : Split accross interleaves
Interleave, duration        : 42  ms (1.00 video frame)
Interleave, preload duratio : 500  ms
Service kind                : Complete Main
Audio #2
ID                          : 2
Format                      : AC-3
Format/Info                 : Audio Coding 3
Codec ID                    : 2000
Duration                    : 1 h 41 min
Bit rate mode               : Constant
Bit rate                    : 192 kb/s
Channel(s)                  : 2 channels
Channel positions           : Front: L R
Sampling rate               : 48.0 kHz
Frame rate                  : 31.250 FPS (1536 SPF)
Bit depth                   : 16 bits
Compression mode            : Lossy
Stream size                 : 139 MiB (10%)
Alignment                   : Split accross interleaves
Interleave, duration        : 42  ms (1.00 video frame)
Interleave, preload duratio : 500  ms
Service kind                : Complete Main
 
Не забывайте говорить Спасибо. Не уходите с раздачи!   
Торрент: Зарегистрирован [17 июн 2018, 11:06] Скачать торрент
Скачать торрент
[ Размер 14.73 КБ / Просмотров 0 ]
Статус:
Проверен
 
.torrent скачан: 0 раз
Хэш: c81f52f6c2bb94a683b98bef273aced22a6671de
Размер: 1.42 ГБ (1 519 521 792 байт)
Стать Автором раздачи
 
 
Раздал: 0 байт
Скачал: 0 байт
Ратио: Inf.
Сообщения: 487468
Зарегистрирован: 17 апр 2014, 13:57


  • Похожие торренты
    Ответы
    Просмотры
    Последнее сообщение

Вернуться в Зарубежные фильмы до 1990 года

Ресурс не предоставляет электронные версии произведений, а занимается лишь коллекционированием и каталогизацией ссылок, присылаемых и публикуемых на форуме нашими читателями. Если вы являетесь правообладателем какого-либо представленного материала и не желаете чтобы ссылка на него находилась в нашем каталоге, свяжитесь с нами и мы незамедлительно удалим её. Файлы для обмена на трекере предоставлены пользователями сайта, и администрация не несёт ответственности за их содержание. Просьба не заливать файлы, защищенные авторскими правами, а также файлы нелегального содержания!
cron