Музыкальная платформа. Концерт / Музична платформа. Концерт (Эфир 28.06.2018) [2018, Pop, SATRip]

 
 Статистика раздачи 
Размер: 2.27 ГБ   |  Зарегистрирован: 30 июн 2018, 19:47   |   .torrent скачан: 0 раз
Сидеров: 1  [ 0 байт/сек ]     Личеров: 0  [ 0 байт/сек ]  
  

Музыкальная платформа. Концерт / Музична платформа. Концерт (Эфир 28.06.2018) [2018, Pop, SATRip]

Сообщение Nakazhu » 30 июн 2018, 23:02

Музыкальная платформа. Концерт / Музична платформа. Концерт (Эфир 28.06.2018)
Страна: Украина
Жанр: Pop
Продолжительность: 01:19:35
Год выпуска: 2018Описание: «Музыкальная платформа» - это лучшие песни и музыканты, новогодняя атмосфера и неожиданные сюрпризы. Зрители станут свидетелями яркого шоу, поскольку каждый номер концертной программы представлен в виде отдельной постановки.
01. Оля Полякова - Номер один
02. Rumbero's - Mi musica
03. Tayanna - Квiтка
04. TiК - Волошки
05. Неангели - Сережа
06. Геннадiй Вiтер - По звездам босиком
07. Злата Огневiч - За лiтом, за весною
08. Dzidzio - Маршрутка
09. Оксана Бiлозiр - А ти по мене думай
10. Вiктор Павлiк - Грiшна i земна
11. Марiя Яремчук - Ти в менi є
12. Олег Винник - Хочу на берег океана
13. Оля Цибульська - Сукня
14. Дiма Коляденко - Маруся
15. Sonya Kay - Слухай моє серце
16. Вiталiй Козловський - Лiтай
17. Alyosha - Калина
18. Yurcash - Капiтан дирижабля
19. Michelle Andrade - Musica
20. Monatik - Витамин D
21. Наталка Карпа - @Хiт
22. Наталiя Могилевська - Я завелась
Источник: собственный рип
Качество: SATRip
Контейнер: TS/M2TS
Видео кодек: MPEG2
Аудио кодек: MP2
Видео: MPEG2 Video 704x576 (16:9) 3 681kbps 25fps
Аудио: MPEG Audio 192kbps 48kHz 1ch
Код: Выделить всё
General
ID                          : 1 (0x1)
Complete name               : F:\Мои раздачи\Музыка\Музична платформа (2018-06-28).ts
Format                      : MPEG-TS
File size                   : 2.27 GiB
Duration                    : 1 h 19 min
Overall bit rate mode       : Variable
Overall bit rate            : 4 076 kb/s
Video
ID                          : 6611 (0x19D3)
Menu ID                     : 1 (0x1)
Format                      : MPEG Video
Format version              : Version 2
Format profile              : Main@Main
Format settings, BVOP       : Yes
Format settings, Matrix     : Custom
Format settings, GOP        : Variable
Format settings, picture st : Frame
Codec ID                    : 2
Duration                    : 1 h 19 min
Bit rate mode               : Variable
Bit rate                    : 3 680 kb/s
Maximum bit rate            : 15.0 Mb/s
Width                       : 704 pixels
Height                      : 576 pixels
Display aspect ratio        : 16:9
Frame rate                  : 25.000 FPS
Standard                    : PAL
Color space                 : YUV
Chroma subsampling          : 4:2:0
Bit depth                   : 8 bits
Scan type                   : Interlaced
Scan order                  : Top Field First
Compression mode            : Lossy
Bits/(Pixel*Frame)          : 0.363
Time code of first frame    : 00:00:00:00
Time code source            : Group of pictures header
GOP, Open/Closed            : Open
Stream size                 : 2.05 GiB (90%)
Audio
ID                          : 6612 (0x19D4)
Menu ID                     : 1 (0x1)
Format                      : MPEG Audio
Format version              : Version 1
Format profile              : Layer 2
Codec ID                    : 3
Duration                    : 1 h 19 min
Bit rate mode               : Constant
Bit rate                    : 192 kb/s
Channel(s)                  : 1 channel
Sampling rate               : 48.0 kHz
Compression mode            : Lossy
Delay relative to video     : 3 ms
Stream size                 : 109 MiB (5%)
Language                    : Ukrainian
 
Не забывайте говорить Спасибо. Не уходите с раздачи!   
Торрент: Зарегистрирован [30 июн 2018, 19:47] Скачать торрент
Скачать торрент
[ Размер 11.81 КБ / Просмотров 4 ]
Статус:
Проверен
 
.torrent скачан: 0 раз
Хэш: 32714b4ddba8cddc33887b8b9f7ecb01b5ae6a6e
Размер: 2.27 ГБ (2 432 779 032 байт)
Стать Автором раздачи
 
 
Раздал: 0 байт
Скачал: 0 байт
Ратио: Inf.
Сообщения: 487468
Зарегистрирован: 17 апр 2014, 13:57


  • Похожие торренты
    Ответы
    Просмотры
    Последнее сообщение

Вернуться в Отечественная поп-музыка (Видео)

Ресурс не предоставляет электронные версии произведений, а занимается лишь коллекционированием и каталогизацией ссылок, присылаемых и публикуемых на форуме нашими читателями. Если вы являетесь правообладателем какого-либо представленного материала и не желаете чтобы ссылка на него находилась в нашем каталоге, свяжитесь с нами и мы незамедлительно удалим её. Файлы для обмена на трекере предоставлены пользователями сайта, и администрация не несёт ответственности за их содержание. Просьба не заливать файлы, защищенные авторскими правами, а также файлы нелегального содержания!
cron