Путешествие в другую жизнь, или Нечаянная Радость (Валерий Дёмин, Людмила Дёмина) [2007, Православно-познавательный, DVD5]

 
 Статистика раздачи 
Размер: 4.01 ГБ   |  Зарегистрирован: 30 июн 2018, 12:32   |   .torrent скачан: 0 раз
Сидеров: 1  [ 0 байт/сек ]     Личеров: 0  [ 0 байт/сек ]  
  

Путешествие в другую жизнь, или Нечаянная Радость (Валерий Дёмин, Людмила Дёмина) [2007, Православно-познавательный, DVD5]

Сообщение Nakazhu » 30 июн 2018, 15:48

Путешествие в другую жизнь, или Нечаянная Радость
Год выпуска: 2007
Страна: Россия
Жанр: Православно-познавательный
Продолжительность: 01:02:13 + 00:54:09
Перевод: Не требуется
Русские субтитры: нет
Режиссер: В. Дёмин, Л. Дёмина
Описание: Как сплетается в единое целое жизнь отдельного человека с жизнью его прихода, его рода и всей его страны - об этом рассказывается в этом двухсерийном фильме на примере жизни отца Александра Егорова, прослужившего в храме Илии Обыденного почти полвека...
«Этот фильм может быть полезным многим. Из него становится видно, каким образом удавалось сохранить христианскую веру и укорененность в православной традиции в очень непростых условиях существования Церкви в XX веке.»
Зав. кафедрой догматического богословия ПСТГУ прот. Борис Левшенко
Доп. информация: Меню нет. Вторая серий идет следом за первой.
Сэмпл: https://cloud.mail.ru/public/E4QH/9PbkXX2J2
Качество: DVD5
Формат: DVD video
Видео кодек: MPEG2
Аудио кодек: AC3
Видео: VBR ~ 4621-5570 Кбит/сек, PAL 720*576 (4:3), 25,000 кадр/сек, MPEG2
Аудио: Русский, 256 Кбит/сек, 48,0 КГц, 2 канала, AC-3
Код: Выделить всё
Title: Путешествие в другую жизнь, или Нечаянная Радость
Size: 4.01 Gb ( 4 209 778 KBytes ) - DVD-5
Enabled regions: 1, 2, 3, 4, 5, 6, 7, 8
VTS_01 :
  Play Length: 01:02:13
  Video: PAL 4:3 (720x576) VBR
  Audio:
      Not specified (Dolby AC3, 2 ch)
VTS_02 :
  Play Length: 00:54:09
  Video: PAL 4:3 (720x576) VBR
  Audio:
      Not specified (Dolby AC3, 2 ch)
Menu Video:
      PAL 4:3 (720x576) VBR
Menu Subtitles:
      Not specified
Menu  Language Unit :
      Root Menu
      Subpicture Menu
      Angle menu
      Chapter (PTT) Menu
Код: Выделить всё
Общее
Полное имя                               : I:\MONAR\Документальные фильмы\Познавательные фильмы\Путешествие в другую жизнь, или Нечаянная Радость\VIDEO_TS\VIDEO_TS.BUP
Формат                                   : DVD Video
Профиль формата                          : Menu
Размер файла                             : 12,0 Кбайт
Режим общего битрейта                    : Переменный
FileExtension_Invalid                    : ifo
Видео
Идентификатор                            : 224 (0xE0)
Формат                                   : MPEG Video
Версия формата                           : Version 2
Вид битрейта                             : Переменный
Ширина                                   : 720 пикселей
Высота                                   : 576 пикселей
Соотношение сторон                       : 4:3
Частота кадров                           : 25,000 кадров/сек
Стандарт вещания                         : PAL
Метод сжатия                             : С потерями
Текст
Формат                                   : RLE
Формат/Информация                        : Run-length encoding
Битовая глубина                          : 2 бит
Общее
Полное имя                               : I:\MONAR\Документальные фильмы\Познавательные фильмы\Путешествие в другую жизнь, или Нечаянная Радость\VIDEO_TS\VIDEO_TS.IFO
Формат                                   : DVD Video
Профиль формата                          : Menu
Размер файла                             : 12,0 Кбайт
Режим общего битрейта                    : Переменный
Видео
Идентификатор                            : 224 (0xE0)
Формат                                   : MPEG Video
Версия формата                           : Version 2
Вид битрейта                             : Переменный
Ширина                                   : 720 пикселей
Высота                                   : 576 пикселей
Соотношение сторон                       : 4:3
Частота кадров                           : 25,000 кадров/сек
Стандарт вещания                         : PAL
Метод сжатия                             : С потерями
Текст
Формат                                   : RLE
Формат/Информация                        : Run-length encoding
Битовая глубина                          : 2 бит
Общее
Полное имя                               : I:\MONAR\Документальные фильмы\Познавательные фильмы\Путешествие в другую жизнь, или Нечаянная Радость\VIDEO_TS\VIDEO_TS.VOB
Формат                                   : MPEG-PS
Размер файла                             : 100 Кбайт
Продолжительность                        : 40 мс.
Режим общего битрейта                    : Переменный
Общий поток                              : 20,5 Мбит/сек
Видео
Идентификатор                            : 224 (0xE0)
Формат                                   : MPEG Video
Версия формата                           : Version 2
Профиль формата                          : Main@Main
Настройки формата                        : CustomMatrix
Параметр BVOP формата                    : Нет
Параметр матрицы формата                 : Выборочная
Продолжительность                        : 40 мс.
Вид битрейта                             : Переменный
Максимальный битрейт                     : 9500 Кбит/сек
Ширина                                   : 720 пикселей
Высота                                   : 576 пикселей
Соотношение сторон                       : 4:3
Частота кадров                           : 25,000 кадров/сек
Стандарт вещания                         : PAL
Цветовое пространство                    : YUV
Субдискретизация насыщенности            : 4:2:0
Битовая глубина                          : 8 бит
Тип развёртки                            : Прогрессивная
Порядок развёртки                        : Верхнее поле первое
Метод сжатия                             : С потерями
Временной код первого кадра              : 00:00:00:00
Оригинал временного кода                 : Group of pictures header
Текст
Идентификатор                            : 189 (0xBD)-32 (0x20)
Формат                                   : RLE
Формат/Информация                        : Run-length encoding
Режим смешивания                         : DVD-Video
Меню
Общее
Полное имя                               : I:\MONAR\Документальные фильмы\Познавательные фильмы\Путешествие в другую жизнь, или Нечаянная Радость\VIDEO_TS\VTS_01_0.BUP
Формат                                   : DVD Video
Профиль формата                          : Program
Размер файла                             : 52,0 Кбайт
Продолжительность                        : 1 ч. 2 м.
Режим общего битрейта                    : Переменный
Общий поток                              : 114 бит/сек
FileExtension_Invalid                    : ifo
Видео
Идентификатор                            : 224 (0xE0)
Формат                                   : MPEG Video
Версия формата                           : Version 2
Продолжительность                        : 1 ч. 2 м.
Вид битрейта                             : Переменный
Ширина                                   : 720 пикселей
Высота                                   : 576 пикселей
Соотношение сторон                       : 4:3
Частота кадров                           : 25,000 кадров/сек
Стандарт вещания                         : PAL
Метод сжатия                             : С потерями
Аудио
Идентификатор                            : 128 (0x80)
Формат                                   : AC-3
Формат/Информация                        : Audio Coding 3
Продолжительность                        : 1 ч. 2 м.
Каналы                                   : 2 канала
Частота                                  : 48,0 КГц
Метод сжатия                             : С потерями
Меню
Продолжительность                        : 1 ч. 2 м.
00:00:00.000                             : Chapter 1
00:10:00.000                             : Chapter 2
00:20:00.000                             : Chapter 3
00:30:00.000                             : Chapter 4
00:40:00.000                             : Chapter 5
00:50:00.000                             : Chapter 6
01:00:00.000                             : Chapter 7
List (Audio)                             : 0
Общее
Полное имя                               : I:\MONAR\Документальные фильмы\Познавательные фильмы\Путешествие в другую жизнь, или Нечаянная Радость\VIDEO_TS\VTS_01_0.IFO
Формат                                   : DVD Video
Профиль формата                          : Program
Размер файла                             : 52,0 Кбайт
Продолжительность                        : 1 ч. 2 м.
Режим общего битрейта                    : Переменный
Общий поток                              : 114 бит/сек
Видео
Идентификатор                            : 224 (0xE0)
Формат                                   : MPEG Video
Версия формата                           : Version 2
Продолжительность                        : 1 ч. 2 м.
Вид битрейта                             : Переменный
Ширина                                   : 720 пикселей
Высота                                   : 576 пикселей
Соотношение сторон                       : 4:3
Частота кадров                           : 25,000 кадров/сек
Стандарт вещания                         : PAL
Метод сжатия                             : С потерями
Аудио
Идентификатор                            : 128 (0x80)
Формат                                   : AC-3
Формат/Информация                        : Audio Coding 3
Продолжительность                        : 1 ч. 2 м.
Каналы                                   : 2 канала
Частота                                  : 48,0 КГц
Метод сжатия                             : С потерями
Меню
Продолжительность                        : 1 ч. 2 м.
00:00:00.000                             : Chapter 1
00:10:00.000                             : Chapter 2
00:20:00.000                             : Chapter 3
00:30:00.000                             : Chapter 4
00:40:00.000                             : Chapter 5
00:50:00.000                             : Chapter 6
01:00:00.000                             : Chapter 7
List (Audio)                             : 0
Общее
Полное имя                               : I:\MONAR\Документальные фильмы\Познавательные фильмы\Путешествие в другую жизнь, или Нечаянная Радость\VIDEO_TS\VTS_01_1.VOB
Формат                                   : MPEG-PS
Размер файла                             : 1016 Мбайт
Продолжительность                        : 15 с. 0 мс.
Режим общего битрейта                    : Переменный
Общий поток                              : 568 Мбит/сек
Видео
Идентификатор                            : 224 (0xE0)
Формат                                   : MPEG Video
Версия формата                           : Version 2
Профиль формата                          : Main@Main
Настройки формата                        : CustomMatrix / BVOP
Параметр BVOP формата                    : Да
Параметр матрицы формата                 : Выборочная
Параметр GOP формата                     : M=3, N=12
Структура изображения                    : Frame
Продолжительность                        : 15 с. 0 мс.
Вид битрейта                             : Переменный
Битрейт                                  : 557 Мбит/сек
Максимальный битрейт                     : 9500 Кбит/сек
Ширина                                   : 720 пикселей
Высота                                   : 576 пикселей
Соотношение сторон                       : 4:3
Частота кадров                           : 25,000 кадров/сек
Стандарт вещания                         : PAL
Цветовое пространство                    : YUV
Субдискретизация насыщенности            : 4:2:0
Битовая глубина                          : 8 бит
Тип развёртки                            : Чересстрочная
Порядок развёртки                        : Верхнее поле первое
Метод сжатия                             : С потерями
Бит/(Пиксели*Кадры)                      : 53.687
Временной код первого кадра              : 00:00:00:00
Оригинал временного кода                 : Group of pictures header
GOP, открыто/закрыто                     : Открыто
GOP, открыто/закрыто на первом кадре     : Закрыто
Размер потока                            : 995 Мбайт (98%)
Аудио
Идентификатор                            : 189 (0xBD)-128 (0x80)
Формат                                   : AC-3
Формат/Информация                        : Audio Coding 3
Режим смешивания                         : DVD-Video
Продолжительность                        : 14 с. 784 мс.
Вид битрейта                             : Постоянный
Битрейт                                  : 256 Кбит/сек
Каналы                                   : 2 канала
Расположение каналов                     : Front: L R
Частота                                  : 48,0 КГц
Частота кадров                           : 31,250 кадров/сек (1536 SPF)
Битовая глубина                          : 16 бит
Метод сжатия                             : С потерями
Задержка видео                           : -40 мс.
Размер потока                            : 462 Кбайт (0%)
ServiceKind/String                       : Complete Main
Меню
Общее
Полное имя                               : I:\MONAR\Документальные фильмы\Познавательные фильмы\Путешествие в другую жизнь, или Нечаянная Радость\VIDEO_TS\VTS_01_2.VOB
Формат                                   : MPEG-PS
Размер файла                             : 1016 Мбайт
Продолжительность                        : 28 м. 32 с.
Режим общего битрейта                    : Переменный
Общий поток                              : 4976 Кбит/сек
Видео
Идентификатор                            : 224 (0xE0)
Формат                                   : MPEG Video
Версия формата                           : Version 2
Профиль формата                          : Main@Main
Настройки формата                        : CustomMatrix / BVOP
Параметр BVOP формата                    : Да
Параметр матрицы формата                 : Выборочная
Параметр GOP формата                     : M=3, N=12
Структура изображения                    : Frame
Продолжительность                        : 28 м. 32 с.
Вид битрейта                             : Переменный
Битрейт                                  : 4621 Кбит/сек
Максимальный битрейт                     : 9500 Кбит/сек
Ширина                                   : 720 пикселей
Высота                                   : 576 пикселей
Соотношение сторон                       : 4:3
Частота кадров                           : 25,000 кадров/сек
Стандарт вещания                         : PAL
Цветовое пространство                    : YUV
Субдискретизация насыщенности            : 4:2:0
Битовая глубина                          : 8 бит
Тип развёртки                            : Чересстрочная
Порядок развёртки                        : Верхнее поле первое
Метод сжатия                             : С потерями
Бит/(Пиксели*Кадры)                      : 0.446
Временной код первого кадра              : 00:28:48:12
Оригинал временного кода                 : Group of pictures header
GOP, открыто/закрыто                     : Открыто
Размер потока                            : 944 Мбайт (93%)
Аудио
Идентификатор                            : 189 (0xBD)-128 (0x80)
Формат                                   : AC-3
Формат/Информация                        : Audio Coding 3
Режим смешивания                         : DVD-Video
Продолжительность                        : 28 м. 32 с.
Вид битрейта                             : Постоянный
Битрейт                                  : 256 Кбит/сек
Каналы                                   : 2 канала
Расположение каналов                     : Front: L R
Частота                                  : 48,0 КГц
Частота кадров                           : 31,250 кадров/сек (1536 SPF)
Битовая глубина                          : 16 бит
Метод сжатия                             : С потерями
Задержка видео                           : -104 мс.
Размер потока                            : 52,3 Мбайт (5%)
ServiceKind/String                       : Complete Main
Меню
Общее
Полное имя                               : I:\MONAR\Документальные фильмы\Познавательные фильмы\Путешествие в другую жизнь, или Нечаянная Радость\VIDEO_TS\VTS_01_3.VOB
Формат                                   : MPEG-PS
Размер файла                             : 165 Мбайт
Продолжительность                        : 33 с. 664 мс.
Режим общего битрейта                    : Переменный
Общий поток                              : 41,0 Мбит/сек
Видео
Идентификатор                            : 224 (0xE0)
Формат                                   : MPEG Video
Версия формата                           : Version 2
Профиль формата                          : Main@Main
Настройки формата                        : CustomMatrix / BVOP
Параметр BVOP формата                    : Да
Параметр матрицы формата                 : Выборочная
Параметр GOP формата                     : M=3, N=12
Структура изображения                    : Frame
Продолжительность                        : 33 с. 520 мс.
Вид битрейта                             : Переменный
Битрейт                                  : 39,9 Мбит/сек
Максимальный битрейт                     : 9500 Кбит/сек
Ширина                                   : 720 пикселей
Высота                                   : 576 пикселей
Соотношение сторон                       : 4:3
Частота кадров                           : 25,000 кадров/сек
Стандарт вещания                         : PAL
Цветовое пространство                    : YUV
Субдискретизация насыщенности            : 4:2:0
Битовая глубина                          : 8 бит
Тип развёртки                            : Чересстрочная
Порядок развёртки                        : Верхнее поле первое
Метод сжатия                             : С потерями
Бит/(Пиксели*Кадры)                      : 3.852
Временной код первого кадра              : 00:57:21:03
Оригинал временного кода                 : Group of pictures header
GOP, открыто/закрыто                     : Открыто
Размер потока                            : 160 Мбайт (97%)
Аудио
Идентификатор                            : 189 (0xBD)-128 (0x80)
Формат                                   : AC-3
Формат/Информация                        : Audio Coding 3
Режим смешивания                         : DVD-Video
Продолжительность                        : 33 с. 664 мс.
Вид битрейта                             : Постоянный
Битрейт                                  : 256 Кбит/сек
Каналы                                   : 2 канала
Расположение каналов                     : Front: L R
Частота                                  : 48,0 КГц
Частота кадров                           : 31,250 кадров/сек (1536 SPF)
Битовая глубина                          : 16 бит
Метод сжатия                             : С потерями
Задержка видео                           : -112 мс.
Размер потока                            : 1,03 Мбайт (1%)
ServiceKind/String                       : Complete Main
Меню
Общее
Полное имя                               : I:\MONAR\Документальные фильмы\Познавательные фильмы\Путешествие в другую жизнь, или Нечаянная Радость\VIDEO_TS\VTS_02_0.BUP
Формат                                   : DVD Video
Профиль формата                          : Program
Размер файла                             : 48,0 Кбайт
Продолжительность                        : 54 м. 9 с.
Режим общего битрейта                    : Переменный
Общий поток                              : 121 бит/сек
FileExtension_Invalid                    : ifo
Видео
Идентификатор                            : 224 (0xE0)
Формат                                   : MPEG Video
Версия формата                           : Version 2
Продолжительность                        : 54 м. 9 с.
Вид битрейта                             : Переменный
Ширина                                   : 720 пикселей
Высота                                   : 576 пикселей
Соотношение сторон                       : 4:3
Частота кадров                           : 25,000 кадров/сек
Стандарт вещания                         : PAL
Метод сжатия                             : С потерями
Аудио
Идентификатор                            : 128 (0x80)
Формат                                   : AC-3
Формат/Информация                        : Audio Coding 3
Продолжительность                        : 54 м. 9 с.
Каналы                                   : 2 канала
Частота                                  : 48,0 КГц
Метод сжатия                             : С потерями
Меню
Продолжительность                        : 54 м. 9 с.
00:00:00.000                             : Chapter 1
00:10:00.000                             : Chapter 2
00:20:00.000                             : Chapter 3
00:30:00.000                             : Chapter 4
00:40:00.000                             : Chapter 5
00:50:00.000                             : Chapter 6
List (Audio)                             : 0
Общее
Полное имя                               : I:\MONAR\Документальные фильмы\Познавательные фильмы\Путешествие в другую жизнь, или Нечаянная Радость\VIDEO_TS\VTS_02_0.IFO
Формат                                   : DVD Video
Профиль формата                          : Program
Размер файла                             : 48,0 Кбайт
Продолжительность                        : 54 м. 9 с.
Режим общего битрейта                    : Переменный
Общий поток                              : 121 бит/сек
Видео
Идентификатор                            : 224 (0xE0)
Формат                                   : MPEG Video
Версия формата                           : Version 2
Продолжительность                        : 54 м. 9 с.
Вид битрейта                             : Переменный
Ширина                                   : 720 пикселей
Высота                                   : 576 пикселей
Соотношение сторон                       : 4:3
Частота кадров                           : 25,000 кадров/сек
Стандарт вещания                         : PAL
Метод сжатия                             : С потерями
Аудио
Идентификатор                            : 128 (0x80)
Формат                                   : AC-3
Формат/Информация                        : Audio Coding 3
Продолжительность                        : 54 м. 9 с.
Каналы                                   : 2 канала
Частота                                  : 48,0 КГц
Метод сжатия                             : С потерями
Меню
Продолжительность                        : 54 м. 9 с.
00:00:00.000                             : Chapter 1
00:10:00.000                             : Chapter 2
00:20:00.000                             : Chapter 3
00:30:00.000                             : Chapter 4
00:40:00.000                             : Chapter 5
00:50:00.000                             : Chapter 6
List (Audio)                             : 0
Общее
Полное имя                               : I:\MONAR\Документальные фильмы\Познавательные фильмы\Путешествие в другую жизнь, или Нечаянная Радость\VIDEO_TS\VTS_02_1.VOB
Формат                                   : MPEG-PS
Размер файла                             : 1016 Мбайт
Продолжительность                        : 18 с. 360 мс.
Режим общего битрейта                    : Переменный
Общий поток                              : 464 Мбит/сек
Видео
Идентификатор                            : 224 (0xE0)
Формат                                   : MPEG Video
Версия формата                           : Version 2
Профиль формата                          : Main@Main
Настройки формата                        : CustomMatrix / BVOP
Параметр BVOP формата                    : Да
Параметр матрицы формата                 : Выборочная
Параметр GOP формата                     : M=3, N=12
Структура изображения                    : Frame
Продолжительность                        : 18 с. 360 мс.
Вид битрейта                             : Переменный
Битрейт                                  : 455 Мбит/сек
Максимальный битрейт                     : 9500 Кбит/сек
Ширина                                   : 720 пикселей
Высота                                   : 576 пикселей
Соотношение сторон                       : 4:3
Частота кадров                           : 25,000 кадров/сек
Стандарт вещания                         : PAL
Цветовое пространство                    : YUV
Субдискретизация насыщенности            : 4:2:0
Битовая глубина                          : 8 бит
Тип развёртки                            : Чересстрочная
Порядок развёртки                        : Верхнее поле первое
Метод сжатия                             : С потерями
Бит/(Пиксели*Кадры)                      : 43.857
Временной код первого кадра              : 00:00:00:00
Оригинал временного кода                 : Group of pictures header
GOP, открыто/закрыто                     : Открыто
GOP, открыто/закрыто на первом кадре     : Закрыто
Размер потока                            : 995 Мбайт (98%)
Аудио
Идентификатор                            : 189 (0xBD)-128 (0x80)
Формат                                   : AC-3
Формат/Информация                        : Audio Coding 3
Режим смешивания                         : DVD-Video
Продолжительность                        : 18 с. 176 мс.
Вид битрейта                             : Постоянный
Битрейт                                  : 256 Кбит/сек
Каналы                                   : 2 канала
Расположение каналов                     : Front: L R
Частота                                  : 48,0 КГц
Частота кадров                           : 31,250 кадров/сек (1536 SPF)
Битовая глубина                          : 16 бит
Метод сжатия                             : С потерями
Задержка видео                           : -40 мс.
Размер потока                            : 568 Кбайт (0%)
ServiceKind/String                       : Complete Main
Меню
Общее
Полное имя                               : I:\MONAR\Документальные фильмы\Познавательные фильмы\Путешествие в другую жизнь, или Нечаянная Радость\VIDEO_TS\VTS_02_2.VOB
Формат                                   : MPEG-PS
Размер файла                             : 898 Мбайт
Продолжительность                        : 36 с. 864 мс.
Режим общего битрейта                    : Переменный
Общий поток                              : 204 Мбит/сек
Видео
Идентификатор                            : 224 (0xE0)
Формат                                   : MPEG Video
Версия формата                           : Version 2
Профиль формата                          : Main@Main
Настройки формата                        : CustomMatrix / BVOP
Параметр BVOP формата                    : Да
Параметр матрицы формата                 : Выборочная
Параметр GOP формата                     : M=3, N=12
Структура изображения                    : Frame
Продолжительность                        : 36 с. 400 мс.
Вид битрейта                             : Переменный
Битрейт                                  : 200 Мбит/сек
Максимальный битрейт                     : 9500 Кбит/сек
Ширина                                   : 720 пикселей
Высота                                   : 576 пикселей
Соотношение сторон                       : 4:3
Частота кадров                           : 25,000 кадров/сек
Стандарт вещания                         : PAL
Цветовое пространство                    : YUV
Субдискретизация насыщенности            : 4:2:0
Битовая глубина                          : 8 бит
Тип развёртки                            : Чересстрочная
Порядок развёртки                        : Верхнее поле первое
Метод сжатия                             : С потерями
Бит/(Пиксели*Кадры)                      : 19.297
Временной код первого кадра              : 00:28:41:07
Оригинал временного кода                 : Group of pictures header
GOP, открыто/закрыто                     : Открыто
Размер потока                            : 868 Мбайт (97%)
Аудио
Идентификатор                            : 189 (0xBD)-128 (0x80)
Формат                                   : AC-3
Формат/Информация                        : Audio Coding 3
Режим смешивания                         : DVD-Video
Продолжительность                        : 36 с. 864 мс.
Вид битрейта                             : Постоянный
Битрейт                                  : 256 Кбит/сек
Каналы                                   : 2 канала
Расположение каналов                     : Front: L R
Частота                                  : 48,0 КГц
Частота кадров                           : 31,250 кадров/сек (1536 SPF)
Битовая глубина                          : 16 бит
Метод сжатия                             : С потерями
Задержка видео                           : -72 мс.
Размер потока                            : 1,13 Мбайт (0%)
ServiceKind/String                       : Complete Main
Меню
 
Не забывайте говорить Спасибо. Не уходите с раздачи!   
Торрент: Зарегистрирован [30 июн 2018, 12:32] Скачать торрент
Скачать торрент
[ Размер 21.67 КБ / Просмотров 1 ]
Статус:
Проверен
 
.torrent скачан: 0 раз
Хэш: cd0ab6d115dbb974a61389cd1de73f2c8005e311
Размер: 4.01 ГБ (4 310 812 672 байт)
Стать Автором раздачи
 
 
Раздал: 0 байт
Скачал: 0 байт
Ратио: Inf.
Сообщения: 487468
Зарегистрирован: 17 апр 2014, 13:57


  • Похожие торренты
    Ответы
    Просмотры
    Последнее сообщение

Вернуться в Вера и религия (видео)

Ресурс не предоставляет электронные версии произведений, а занимается лишь коллекционированием и каталогизацией ссылок, присылаемых и публикуемых на форуме нашими читателями. Если вы являетесь правообладателем какого-либо представленного материала и не желаете чтобы ссылка на него находилась в нашем каталоге, свяжитесь с нами и мы незамедлительно удалим её. Файлы для обмена на трекере предоставлены пользователями сайта, и администрация не несёт ответственности за их содержание. Просьба не заливать файлы, защищенные авторскими правами, а также файлы нелегального содержания!
cron