(Soul-Jazz, Garage Rock, Jazz-Funk, Psychedelic Ro) [CD] VA - Back To Peru Vol II - The Most Complete Compilation Of Peruvian Underground 1964 - 2009, FLAC (tracks+.cue), lossless

 
 Статистика раздачи 
Размер: 763.01 МБ   |  Зарегистрирован: 29 июн 2018, 11:45   |   .torrent скачан: 0 раз
Сидеров: 1  [ 0 байт/сек ]     Личеров: 0  [ 0 байт/сек ]  
  

(Soul-Jazz, Garage Rock, Jazz-Funk, Psychedelic Ro) [CD] VA - Back To Peru Vol II - The Most Complete Compilation Of Peruvian Underground 1964 - 2009, FLAC (tracks+.cue), lossless

Сообщение Nakazhu » 29 июн 2018, 15:00

Back To Peru Vol II - The Most Complete Compilation Of Peruvian Underground 1964
Жанр: Soul-Jazz, Garage Rock, Jazz-Funk, Psychedelic Ro
Носитель: CD
Страна-производитель диска (релиза): Spain
Год издания: 2009
Издатель (лейбл): Vampi Soul
Номер по каталогу: VAMPI 117
Страна исполнителя (группы): Peru
Аудиокодек: FLAC (*.flac)
Тип рипа: tracks+.cue
Битрейт аудио: lossless
Продолжительность: 01:57:04
Источник (релизер): sappyyy
Наличие сканов в содержимом раздачи: да
Треклист:
Код: Выделить всё
[color=blac][b]
01. Los Juniors - Tercera Piedra En El Sol (Third Stone From The Sun)
02. Los Drags - Dámelo Mi Nena (Sock It To Me Baby)
03. Los Shain's - Guau Guau A Go Go
04. Los Saicos - Intensamente
05. Kela Gates - Loca Por Un Loco
06. Los Holy's - Sueño Sicodélico (Scrambler)
07. Los Datsun's - En El Sol
08. Los Teddy's - Efectos
09. Los Far Fen - Camina, No Vueles
10. Beautiful Days - Full Of Fear
11. Los Comandos - Más De Ti
12. The Same People - Soñando Contigo
13. El Opio - Pusher
14. Los Zheros - Cuarto Oscuro
15. Los Jaguars - Tormenta En El Mar De La Tranquilidad
16. Telegraph Avenue - Let Me Start
17. The Ringers - Down On My Knees Again
18. We All Together - Rock Of All Ages
19. Monik - Maybe I Know
20. FE 59 - Estoy Brillando
[/color][/b]
Код: Выделить всё
[color=blac][b]
01. Los Destellos - Onstá La Yerbita
02. Los Siderals - Dongoh
03. Jean Paul "El Troglodita" - Everything Is Gonna Change
04. Los York's - Ya Bebí Gran Rato
05. Melcochita Y Sus Invitados - Tirando Dedo
06. Pax - Sittin' On My Head
07. El Álamo - Pusher Men
08. Los Texao - La Pelea Del Gobernador
09. Traffic Sound - The Revolution
10. Zulú - Haces Mal Pobre Chico
11. El Polen - Concordancia
12. Cacique - Cacique
13. Cerro Verde - I Lost A Game
14. Sudamérica - Yo No Sé Señor
[/color][/b]
Код: Выделить всё
X Lossless Decoder version 20100323 (116.7)
XLD extraction logfile from 2010-03-29 18:08:34 +0200
Various Artists / Back To Peru Vol 2
Used drive : MATSHITA DVD-R   UJ-875 (revision DB09)
Use cdparanoia mode     : YES (CDParanoia III 10.2 engine)
Disable audio cache     : OK for the drive with cache less than 2750KB
Make use of C2 pointers : NO
Read offset correction  : 102
Max retry count         : 100
TOC of the extracted CD
     Track |   Start  |  Length  | Start sector | End sector
    ---------------------------------------------------------
        1  | 00:00:00 | 03:06:15 |         0    |    13964
        2  | 03:06:15 | 02:59:72 |     13965    |    27461
        3  | 06:06:12 | 01:41:64 |     27462    |    35100
        4  | 07:48:01 | 02:19:07 |     35101    |    45532
        5  | 10:07:08 | 02:23:44 |     45533    |    56301
        6  | 12:30:52 | 02:41:71 |     56302    |    68447
        7  | 15:12:48 | 03:45:57 |     68448    |    85379
        8  | 18:58:30 | 03:02:09 |     85380    |    99038
        9  | 22:00:39 | 03:07:42 |     99039    |   113105
       10  | 25:08:06 | 03:58:12 |    113106    |   130967
       11  | 29:06:18 | 03:49:15 |    130968    |   148157
       12  | 32:55:33 | 02:25:58 |    148158    |   159090
       13  | 35:21:16 | 02:45:48 |    159091    |   171513
       14  | 38:06:64 | 02:59:56 |    171514    |   184994
       15  | 41:06:45 | 02:40:43 |    184995    |   197037
       16  | 43:47:13 | 02:48:70 |    197038    |   209707
       17  | 46:36:08 | 02:35:09 |    209708    |   221341
       18  | 49:11:17 | 03:41:56 |    221342    |   237972
       19  | 52:52:73 | 02:52:05 |    237973    |   250877
       20  | 55:45:03 | 03:28:23 |    250878    |   266500
Track 01
    Filename : /Users/.../Documents/Uploads/back to peru 2/01 Los Juniors - Tercera Piedra En El Sol.flac
    Pre-gap length : 00:02:00
    CRC32 hash (test run)  : D7F695CD
    CRC32 hash             : D7F695CD
    CRC32 hash (skip zero) : 7C01EE36
    AccurateRip signature  : E4991FAD
        ->Track not present in AccurateRip database.
    Statistics
        Read error                           : 0
        Skipped (treated as error)           : 0
        Edge jitter error (maybe fixed)      : 0
        Atom jitter error (maybe fixed)      : 0
        Drift error (maybe fixed)            : 0
        Dropped bytes error (maybe fixed)    : 0
        Duplicated bytes error (maybe fixed) : 0
        Inconsistency in error sectors       : 0
Track 02
    Filename : /Users/.../Documents/Uploads/back to peru 2/02 Drag - Dámelo Mi Nena.flac
    Pre-gap length : 00:02:03
    CRC32 hash (test run)  : 7B3D3640
    CRC32 hash             : 7B3D3640
    CRC32 hash (skip zero) : 1D184A2A
    AccurateRip signature  : 2C1CE7B9
        ->Track not present in AccurateRip database.
    Statistics
        Read error                           : 0
        Skipped (treated as error)           : 0
        Edge jitter error (maybe fixed)      : 0
        Atom jitter error (maybe fixed)      : 0
        Drift error (maybe fixed)            : 0
        Dropped bytes error (maybe fixed)    : 0
        Duplicated bytes error (maybe fixed) : 0
        Inconsistency in error sectors       : 0
Track 03
    Filename : /Users/.../Documents/Uploads/back to peru 2/03 A. Shain - Guau Guau A Go-Go.flac
    Pre-gap length : 00:02:03
    CRC32 hash (test run)  : 48AB385F
    CRC32 hash             : 48AB385F
    CRC32 hash (skip zero) : 185A27C4
    AccurateRip signature  : 673FCFC4
        ->Track not present in AccurateRip database.
    Statistics
        Read error                           : 0
        Skipped (treated as error)           : 0
        Edge jitter error (maybe fixed)      : 0
        Atom jitter error (maybe fixed)      : 0
        Drift error (maybe fixed)            : 0
        Dropped bytes error (maybe fixed)    : 0
        Duplicated bytes error (maybe fixed) : 0
        Inconsistency in error sectors       : 0
Track 04
    Filename : /Users/.../Documents/Uploads/back to peru 2/04 Los Saicos - Intensamente.flac
    Pre-gap length : 00:03:04
    CRC32 hash (test run)  : 4FB0035B
    CRC32 hash             : 4FB0035B
    CRC32 hash (skip zero) : 5025DB04
    AccurateRip signature  : 243D6527
        ->Track not present in AccurateRip database.
    Statistics
        Read error                           : 0
        Skipped (treated as error)           : 0
        Edge jitter error (maybe fixed)      : 0
        Atom jitter error (maybe fixed)      : 0
        Drift error (maybe fixed)            : 0
        Dropped bytes error (maybe fixed)    : 0
        Duplicated bytes error (maybe fixed) : 0
        Inconsistency in error sectors       : 0
Track 05
    Filename : /Users/.../Documents/Uploads/back to peru 2/05 Kela Gates - Loca Por Un Loco.flac
    Pre-gap length : 00:03:04
    CRC32 hash (test run)  : F9645513
    CRC32 hash             : F9645513
    CRC32 hash (skip zero) : 2FE3DD8D
    AccurateRip signature  : CD5347FA
        ->Track not present in AccurateRip database.
    Statistics
        Read error                           : 0
        Skipped (treated as error)           : 0
        Edge jitter error (maybe fixed)      : 0
        Atom jitter error (maybe fixed)      : 0
        Drift error (maybe fixed)            : 0
        Dropped bytes error (maybe fixed)    : 0
        Duplicated bytes error (maybe fixed) : 0
        Inconsistency in error sectors       : 0
Track 06
    Filename : /Users/.../Documents/Uploads/back to peru 2/06 Los Holy's - Sueño Sicodélico.flac
    Pre-gap length : 00:02:03
    CRC32 hash (test run)  : 1E1FEDA5
    CRC32 hash             : 1E1FEDA5
    CRC32 hash (skip zero) : 872A8C9E
    AccurateRip signature  : 9D68AF08
        ->Track not present in AccurateRip database.
    Statistics
        Read error                           : 0
        Skipped (treated as error)           : 0
        Edge jitter error (maybe fixed)      : 0
        Atom jitter error (maybe fixed)      : 0
        Drift error (maybe fixed)            : 0
        Dropped bytes error (maybe fixed)    : 0
        Duplicated bytes error (maybe fixed) : 0
        Inconsistency in error sectors       : 0
Track 07
    Filename : /Users/.../Documents/Uploads/back to peru 2/07 Los Datsun's - En El Sol.flac
    Pre-gap length : 00:01:02
    CRC32 hash (test run)  : E2052708
    CRC32 hash             : E2052708
    CRC32 hash (skip zero) : 354C2AA2
    AccurateRip signature  : B6F6A7C7
        ->Track not present in AccurateRip database.
    Statistics
        Read error                           : 0
        Skipped (treated as error)           : 0
        Edge jitter error (maybe fixed)      : 0
        Atom jitter error (maybe fixed)      : 0
        Drift error (maybe fixed)            : 0
        Dropped bytes error (maybe fixed)    : 0
        Duplicated bytes error (maybe fixed) : 0
        Inconsistency in error sectors       : 0
Track 08
    Filename : /Users/.../Documents/Uploads/back to peru 2/08 Teddy - Efectos.flac
    Pre-gap length : 00:02:03
    CRC32 hash (test run)  : BAE50901
    CRC32 hash             : BAE50901
    CRC32 hash (skip zero) : 22E17E10
    AccurateRip signature  : D317CE9E
        ->Track not present in AccurateRip database.
    Statistics
        Read error                           : 0
        Skipped (treated as error)           : 0
        Edge jitter error (maybe fixed)      : 0
        Atom jitter error (maybe fixed)      : 0
        Drift error (maybe fixed)            : 0
        Dropped bytes error (maybe fixed)    : 0
        Duplicated bytes error (maybe fixed) : 0
        Inconsistency in error sectors       : 0
Track 09
    Filename : /Users/.../Documents/Uploads/back to peru 2/09 Los Far Fen - Camina, No Vueles.flac
    Pre-gap length : 00:02:03
    CRC32 hash (test run)  : 28569E09
    CRC32 hash             : 28569E09
    CRC32 hash (skip zero) : 3AB0E00E
    AccurateRip signature  : 51441B64
        ->Track not present in AccurateRip database.
    Statistics
        Read error                           : 0
        Skipped (treated as error)           : 0
        Edge jitter error (maybe fixed)      : 0
        Atom jitter error (maybe fixed)      : 0
        Drift error (maybe fixed)            : 0
        Dropped bytes error (maybe fixed)    : 0
        Duplicated bytes error (maybe fixed) : 0
        Inconsistency in error sectors       : 0
Track 10
    Filename : /Users/.../Documents/Uploads/back to peru 2/10 Beautiful Days - Full Of Fear.flac
    Pre-gap length : 00:02:03
    CRC32 hash (test run)  : F721E892
    CRC32 hash             : F721E892
    CRC32 hash (skip zero) : 330738DF
    AccurateRip signature  : A336A6E3
        ->Track not present in AccurateRip database.
    Statistics
        Read error                           : 0
        Skipped (treated as error)           : 0
        Edge jitter error (maybe fixed)      : 0
        Atom jitter error (maybe fixed)      : 0
        Drift error (maybe fixed)            : 0
        Dropped bytes error (maybe fixed)    : 0
        Duplicated bytes error (maybe fixed) : 0
        Inconsistency in error sectors       : 0
Track 11
    Filename : /Users/.../Documents/Uploads/back to peru 2/11 Los Comandos - Más De Ti.flac
    Pre-gap length : 00:01:35
    CRC32 hash (test run)  : 5E1DEDB0
    CRC32 hash             : 5E1DEDB0
    CRC32 hash (skip zero) : 5D46C813
    AccurateRip signature  : 62F3D1AB
        ->Track not present in AccurateRip database.
    Statistics
        Read error                           : 0
        Skipped (treated as error)           : 0
        Edge jitter error (maybe fixed)      : 0
        Atom jitter error (maybe fixed)      : 0
        Drift error (maybe fixed)            : 0
        Dropped bytes error (maybe fixed)    : 0
        Duplicated bytes error (maybe fixed) : 0
        Inconsistency in error sectors       : 0
Track 12
    Filename : /Users/.../Documents/Uploads/back to peru 2/12 The Same People - Soñando Contigo.flac
    Pre-gap length : 00:02:03
    CRC32 hash (test run)  : 4C0D5D95
    CRC32 hash             : 4C0D5D95
    CRC32 hash (skip zero) : 7A36AAED
    AccurateRip signature  : 4BBA4643
        ->Track not present in AccurateRip database.
    Statistics
        Read error                           : 0
        Skipped (treated as error)           : 0
        Edge jitter error (maybe fixed)      : 0
        Atom jitter error (maybe fixed)      : 0
        Drift error (maybe fixed)            : 0
        Dropped bytes error (maybe fixed)    : 0
        Duplicated bytes error (maybe fixed) : 0
        Inconsistency in error sectors       : 0
Track 13
    Filename : /Users/.../Documents/Uploads/back to peru 2/13 El Opio - Pusher.flac
    Pre-gap length : 00:02:03
    CRC32 hash (test run)  : D0DD6336
    CRC32 hash             : D0DD6336
    CRC32 hash (skip zero) : A89FA1C5
    AccurateRip signature  : A39FA7BC
        ->Track not present in AccurateRip database.
    Statistics
        Read error                           : 0
        Skipped (treated as error)           : 0
        Edge jitter error (maybe fixed)      : 0
        Atom jitter error (maybe fixed)      : 0
        Drift error (maybe fixed)            : 0
        Dropped bytes error (maybe fixed)    : 0
        Duplicated bytes error (maybe fixed) : 0
        Inconsistency in error sectors       : 0
Track 14
    Filename : /Users/.../Documents/Uploads/back to peru 2/14 Los Zheros - Cuarto Oscuro.flac
    Pre-gap length : 00:03:04
    CRC32 hash (test run)  : 1826AFEC
    CRC32 hash             : 1826AFEC
    CRC32 hash (skip zero) : 8810EF7A
    AccurateRip signature  : 1D9C28A0
        ->Track not present in AccurateRip database.
    Statistics
        Read error                           : 0
        Skipped (treated as error)           : 0
        Edge jitter error (maybe fixed)      : 0
        Atom jitter error (maybe fixed)      : 0
        Drift error (maybe fixed)            : 0
        Dropped bytes error (maybe fixed)    : 0
        Duplicated bytes error (maybe fixed) : 0
        Inconsistency in error sectors       : 0
Track 15
    Filename : /Users/.../Documents/Uploads/back to peru 2/15 Jaguar - Tormenta En El Mar De La Tranquilidad.flac
    Pre-gap length : 00:03:04
    CRC32 hash (test run)  : AFF42EEB
    CRC32 hash             : AFF42EEB
    CRC32 hash (skip zero) : 1BFA80C7
    AccurateRip signature  : ECE3D347
        ->Track not present in AccurateRip database.
    Statistics
        Read error                           : 0
        Skipped (treated as error)           : 0
        Edge jitter error (maybe fixed)      : 0
        Atom jitter error (maybe fixed)      : 0
        Drift error (maybe fixed)            : 0
        Dropped bytes error (maybe fixed)    : 0
        Duplicated bytes error (maybe fixed) : 0
        Inconsistency in error sectors       : 0
Track 16
    Filename : /Users/.../Documents/Uploads/back to peru 2/16 Telegraph Ave. - Let Me Start.flac
    Pre-gap length : 00:03:04
    CRC32 hash (test run)  : 262ADBB1
    CRC32 hash             : 262ADBB1
    CRC32 hash (skip zero) : E4D98918
    AccurateRip signature  : B37EFB9A
        ->Track not present in AccurateRip database.
    Statistics
        Read error                           : 0
        Skipped (treated as error)           : 0
        Edge jitter error (maybe fixed)      : 0
        Atom jitter error (maybe fixed)      : 0
        Drift error (maybe fixed)            : 0
        Dropped bytes error (maybe fixed)    : 0
        Duplicated bytes error (maybe fixed) : 0
        Inconsistency in error sectors       : 0
Track 17
    Filename : /Users/.../Documents/Uploads/back to peru 2/17 Ringers - Down On My Knees Again.flac
    Pre-gap length : 00:02:03
    CRC32 hash (test run)  : 634D4B99
    CRC32 hash             : 634D4B99
    CRC32 hash (skip zero) : 0C6D491B
    AccurateRip signature  : ADD9F22D
        ->Track not present in AccurateRip database.
    Statistics
        Read error                           : 0
        Skipped (treated as error)           : 0
        Edge jitter error (maybe fixed)      : 0
        Atom jitter error (maybe fixed)      : 0
        Drift error (maybe fixed)            : 0
        Dropped bytes error (maybe fixed)    : 0
        Duplicated bytes error (maybe fixed) : 0
        Inconsistency in error sectors       : 0
Track 18
    Filename : /Users/.../Documents/Uploads/back to peru 2/18 We All Together - Rock Of All Ages.flac
    Pre-gap length : 00:03:04
    CRC32 hash (test run)  : 42B34CAC
    CRC32 hash             : 42B34CAC
    CRC32 hash (skip zero) : C631D069
    AccurateRip signature  : 17EC000E
        ->Track not present in AccurateRip database.
    Statistics
        Read error                           : 0
        Skipped (treated as error)           : 0
        Edge jitter error (maybe fixed)      : 0
        Atom jitter error (maybe fixed)      : 0
        Drift error (maybe fixed)            : 0
        Dropped bytes error (maybe fixed)    : 0
        Duplicated bytes error (maybe fixed) : 0
        Inconsistency in error sectors       : 0
Track 19
    Filename : /Users/.../Documents/Uploads/back to peru 2/19 Monik - Maybe I Know.flac
    Pre-gap length : 00:02:03
    CRC32 hash (test run)  : B54E49EA
    CRC32 hash             : B54E49EA
    CRC32 hash (skip zero) : B627DA31
    AccurateRip signature  : DCFD2D88
        ->Track not present in AccurateRip database.
    Statistics
        Read error                           : 0
        Skipped (treated as error)           : 0
        Edge jitter error (maybe fixed)      : 0
        Atom jitter error (maybe fixed)      : 0
        Drift error (maybe fixed)            : 0
        Dropped bytes error (maybe fixed)    : 0
        Duplicated bytes error (maybe fixed) : 0
        Inconsistency in error sectors       : 0
Track 20
    Filename : /Users/.../Documents/Uploads/back to peru 2/20 Fe 59 - Estoy Brillando.flac
    Pre-gap length : 00:03:04
    CRC32 hash (test run)  : 9E3E3E83
    CRC32 hash             : 9E3E3E83
    CRC32 hash (skip zero) : 66B5EBC3
    AccurateRip signature  : 72930C60
        ->Track not present in AccurateRip database.
    Statistics
        Read error                           : 0
        Skipped (treated as error)           : 0
        Edge jitter error (maybe fixed)      : 0
        Atom jitter error (maybe fixed)      : 0
        Drift error (maybe fixed)            : 0
        Dropped bytes error (maybe fixed)    : 0
        Duplicated bytes error (maybe fixed) : 0
        Inconsistency in error sectors       : 0
No errors occurred
End of status report
Код: Выделить всё
X Lossless Decoder version 20100323 (116.7)
XLD extraction logfile from 2010-03-29 18:52:58 +0200
Various Artists / Back To Peru Vol 2
Used drive : MATSHITA DVD-R   UJ-875 (revision DB09)
Use cdparanoia mode     : YES (CDParanoia III 10.2 engine)
Disable audio cache     : OK for the drive with cache less than 2750KB
Make use of C2 pointers : NO
Read offset correction  : 102
Max retry count         : 100
TOC of the extracted CD
     Track |   Start  |  Length  | Start sector | End sector
    ---------------------------------------------------------
        1  | 00:00:00 | 06:12:58 |         0    |    27957
        2  | 06:12:58 | 02:58:47 |     27958    |    41354
        3  | 09:11:30 | 04:00:45 |     41355    |    59399
        4  | 13:12:00 | 03:10:19 |     59400    |    73668
        5  | 16:22:19 | 03:53:38 |     73669    |    91181
        6  | 20:15:57 | 04:36:68 |     91182    |   111949
        7  | 24:52:50 | 03:21:59 |    111950    |   127083
        8  | 28:14:34 | 04:35:60 |    127084    |   147768
        9  | 32:50:19 | 04:25:41 |    147769    |   167684
       10  | 37:15:60 | 03:22:54 |    167685    |   182888
       11  | 40:38:39 | 07:41:67 |    182889    |   217530
       12  | 48:20:31 | 02:57:18 |    217531    |   230823
       13  | 51:17:49 | 02:34:35 |    230824    |   242408
       14  | 53:52:09 | 03:54:15 |    242409    |   259973
Track 01
    Filename : /Users/.../Documents/Uploads/back to peru 2/01 Los Destellos - Onstá la yerbita.flac
    Pre-gap length : 00:02:00
    CRC32 hash (test run)  : 93092E4C
    CRC32 hash             : 93092E4C
    CRC32 hash (skip zero) : 83D1B9C9
    AccurateRip signature  : 8226C3F0
        ->Track not present in AccurateRip database.
    Statistics
        Read error                           : 0
        Skipped (treated as error)           : 0
        Edge jitter error (maybe fixed)      : 0
        Atom jitter error (maybe fixed)      : 0
        Drift error (maybe fixed)            : 0
        Dropped bytes error (maybe fixed)    : 0
        Duplicated bytes error (maybe fixed) : 0
        Inconsistency in error sectors       : 0
Track 02
    Filename : /Users/.../Documents/Uploads/back to peru 2/02 Sideral - Dongoh.flac
    Pre-gap length : 00:03:04
    CRC32 hash (test run)  : 40752587
    CRC32 hash             : 40752587
    CRC32 hash (skip zero) : B91CEE82
    AccurateRip signature  : A85742A1
        ->Track not present in AccurateRip database.
    Statistics
        Read error                           : 0
        Skipped (treated as error)           : 0
        Edge jitter error (maybe fixed)      : 0
        Atom jitter error (maybe fixed)      : 0
        Drift error (maybe fixed)            : 0
        Dropped bytes error (maybe fixed)    : 0
        Duplicated bytes error (maybe fixed) : 0
        Inconsistency in error sectors       : 0
Track 03
    Filename : /Users/.../Documents/Uploads/back to peru 2/03 Jean Paul El Troglodita - Everything Is Gonna Change.flac
    Pre-gap length : 00:02:03
    CRC32 hash (test run)  : D32FEADF
    CRC32 hash             : D32FEADF
    CRC32 hash (skip zero) : B3C0D662
    AccurateRip signature  : 05D0D0CF
        ->Track not present in AccurateRip database.
    Statistics
        Read error                           : 0
        Skipped (treated as error)           : 0
        Edge jitter error (maybe fixed)      : 0
        Atom jitter error (maybe fixed)      : 0
        Drift error (maybe fixed)            : 0
        Dropped bytes error (maybe fixed)    : 0
        Duplicated bytes error (maybe fixed) : 0
        Inconsistency in error sectors       : 0
Track 04
    Filename : /Users/.../Documents/Uploads/back to peru 2/04 York - Ya bebí gran rato.flac
    Pre-gap length : 00:03:04
    CRC32 hash (test run)  : 1E51DB17
    CRC32 hash             : 1E51DB17
    CRC32 hash (skip zero) : AFA03C9F
    AccurateRip signature  : 1F7DAD48
        ->Track not present in AccurateRip database.
    Statistics
        Read error                           : 0
        Skipped (treated as error)           : 0
        Edge jitter error (maybe fixed)      : 0
        Atom jitter error (maybe fixed)      : 0
        Drift error (maybe fixed)            : 0
        Dropped bytes error (maybe fixed)    : 0
        Duplicated bytes error (maybe fixed) : 0
        Inconsistency in error sectors       : 0
Track 05
    Filename : /Users/.../Documents/Uploads/back to peru 2/05 Melcochita Y Sus Invitados - Tirando dedo.flac
    Pre-gap length : 00:02:72
    CRC32 hash (test run)  : E80C273B
    CRC32 hash             : E80C273B
    CRC32 hash (skip zero) : 057A5DE6
    AccurateRip signature  : 411A4708
        ->Track not present in AccurateRip database.
    Statistics
        Read error                           : 0
        Skipped (treated as error)           : 0
        Edge jitter error (maybe fixed)      : 0
        Atom jitter error (maybe fixed)      : 0
        Drift error (maybe fixed)            : 0
        Dropped bytes error (maybe fixed)    : 0
        Duplicated bytes error (maybe fixed) : 0
        Inconsistency in error sectors       : 0
Track 06
    Filename : /Users/.../Documents/Uploads/back to peru 2/06 Pax - Sittin’ On My Head.flac
    Pre-gap length : 00:02:03
    CRC32 hash (test run)  : 844979DD
    CRC32 hash             : 844979DD
    CRC32 hash (skip zero) : 48389B9E
    AccurateRip signature  : 8D9C2495
        ->Track not present in AccurateRip database.
    Statistics
        Read error                           : 0
        Skipped (treated as error)           : 0
        Edge jitter error (maybe fixed)      : 0
        Atom jitter error (maybe fixed)      : 0
        Drift error (maybe fixed)            : 0
        Dropped bytes error (maybe fixed)    : 0
        Duplicated bytes error (maybe fixed) : 0
        Inconsistency in error sectors       : 0
Track 07
    Filename : /Users/.../Documents/Uploads/back to peru 2/07 Los Alamos - Pusher Men.flac
    Pre-gap length : 00:00:69
    CRC32 hash (test run)  : 6A3A0710
    CRC32 hash             : 6A3A0710
    CRC32 hash (skip zero) : 53147B4F
    AccurateRip signature  : E3AD7E96
        ->Track not present in AccurateRip database.
    Statistics
        Read error                           : 0
        Skipped (treated as error)           : 0
        Edge jitter error (maybe fixed)      : 0
        Atom jitter error (maybe fixed)      : 0
        Drift error (maybe fixed)            : 0
        Dropped bytes error (maybe fixed)    : 0
        Duplicated bytes error (maybe fixed) : 0
        Inconsistency in error sectors       : 0
Track 08
    Filename : /Users/.../Documents/Uploads/back to peru 2/08 Texao - Pelea del gobernador.flac
    Pre-gap length : 00:02:03
    CRC32 hash (test run)  : 79D98A96
    CRC32 hash             : 79D98A96
    CRC32 hash (skip zero) : 0EFB7E64
    AccurateRip signature  : F6670CAD
        ->Track not present in AccurateRip database.
    Statistics
        Read error                           : 0
        Skipped (treated as error)           : 0
        Edge jitter error (maybe fixed)      : 0
        Atom jitter error (maybe fixed)      : 0
        Drift error (maybe fixed)            : 0
        Dropped bytes error (maybe fixed)    : 0
        Duplicated bytes error (maybe fixed) : 0
        Inconsistency in error sectors       : 0
Track 09
    Filename : /Users/.../Documents/Uploads/back to peru 2/09 Traffic Sound - The Revolution.flac
    Pre-gap length : 00:02:03
    CRC32 hash (test run)  : 37CCE029
    CRC32 hash             : 37CCE029
    CRC32 hash (skip zero) : FC0AF2FE
    AccurateRip signature  : 7FBE0559
        ->Track not present in AccurateRip database.
    Statistics
        Read error                           : 0
        Skipped (treated as error)           : 0
        Edge jitter error (maybe fixed)      : 0
        Atom jitter error (maybe fixed)      : 0
        Drift error (maybe fixed)            : 0
        Dropped bytes error (maybe fixed)    : 0
        Duplicated bytes error (maybe fixed) : 0
        Inconsistency in error sectors       : 0
Track 10
    Filename : /Users/.../Documents/Uploads/back to peru 2/10 The Zulu - Haces mal pobre chico.flac
    Pre-gap length : 00:03:04
    CRC32 hash (test run)  : 34B57FAB
    CRC32 hash             : 34B57FAB
    CRC32 hash (skip zero) : 1784EA8B
    AccurateRip signature  : C13371A5
        ->Track not present in AccurateRip database.
    Statistics
        Read error                           : 0
        Skipped (treated as error)           : 0
        Edge jitter error (maybe fixed)      : 0
        Atom jitter error (maybe fixed)      : 0
        Drift error (maybe fixed)            : 0
        Dropped bytes error (maybe fixed)    : 0
        Duplicated bytes error (maybe fixed) : 0
        Inconsistency in error sectors       : 0
Track 11
    Filename : /Users/.../Documents/Uploads/back to peru 2/11 El Polen - Concordancia.flac
    Pre-gap length : 00:03:04
    CRC32 hash (test run)  : 9AD7BB19
    CRC32 hash             : 9AD7BB19
    CRC32 hash (skip zero) : 29CFCD3C
    AccurateRip signature  : C39A7EE0
        ->Track not present in AccurateRip database.
    Statistics
        Read error                           : 0
        Skipped (treated as error)           : 0
        Edge jitter error (maybe fixed)      : 0
        Atom jitter error (maybe fixed)      : 0
        Drift error (maybe fixed)            : 0
        Dropped bytes error (maybe fixed)    : 0
        Duplicated bytes error (maybe fixed) : 0
        Inconsistency in error sectors       : 0
Track 12
    Filename : /Users/.../Documents/Uploads/back to peru 2/12 Cacique - Cacique.flac
    Pre-gap length : 00:03:04
    CRC32 hash (test run)  : 391C9EF0
    CRC32 hash             : 391C9EF0
    CRC32 hash (skip zero) : 856509FF
    AccurateRip signature  : D19921EF
        ->Track not present in AccurateRip database.
    Statistics
        Read error                           : 0
        Skipped (treated as error)           : 0
        Edge jitter error (maybe fixed)      : 0
        Atom jitter error (maybe fixed)      : 0
        Drift error (maybe fixed)            : 0
        Dropped bytes error (maybe fixed)    : 0
        Duplicated bytes error (maybe fixed) : 0
        Inconsistency in error sectors       : 0
Track 13
    Filename : /Users/.../Documents/Uploads/back to peru 2/13 Cerro Varde - I Lost A Game.flac
    Pre-gap length : 00:02:03
    CRC32 hash (test run)  : 54F5F62F
    CRC32 hash             : 54F5F62F
    CRC32 hash (skip zero) : C277EFB0
    AccurateRip signature  : 9E32DDE4
        ->Track not present in AccurateRip database.
    Statistics
        Read error                           : 0
        Skipped (treated as error)           : 0
        Edge jitter error (maybe fixed)      : 0
        Atom jitter error (maybe fixed)      : 0
        Drift error (maybe fixed)            : 0
        Dropped bytes error (maybe fixed)    : 0
        Duplicated bytes error (maybe fixed) : 0
        Inconsistency in error sectors       : 0
Track 14
    Filename : /Users/.../Documents/Uploads/back to peru 2/14 Sudamerica - Yo no sé señor.flac
    Pre-gap length : 00:01:72
    CRC32 hash (test run)  : ABE264A0
    CRC32 hash             : ABE264A0
    CRC32 hash (skip zero) : E556A460
    AccurateRip signature  : 22DC192F
        ->Track not present in AccurateRip database.
    Statistics
        Read error                           : 0
        Skipped (treated as error)           : 0
        Edge jitter error (maybe fixed)      : 0
        Atom jitter error (maybe fixed)      : 0
        Drift error (maybe fixed)            : 0
        Dropped bytes error (maybe fixed)    : 0
        Duplicated bytes error (maybe fixed) : 0
        Inconsistency in error sectors       : 0
No errors occurred
End of status report
Код: Выделить всё
TITLE "Back To Peru Vol 2"
REM GENRE "Rock"
REM DATE 2009
FILE "01 Los Juniors - Tercera Piedra En El Sol.wav" WAVE
  TRACK 01 AUDIO
    TITLE "Tercera Piedra En El Sol"
    PERFORMER "Los Juniors"
    INDEX 01 00:00:00
  TRACK 02 AUDIO
    TITLE "Dámelo Mi Nena"
    PERFORMER "Drag"
    INDEX 00 03:04:12
FILE "02 Drag - Dámelo Mi Nena.wav" WAVE
    INDEX 01 00:00:00
  TRACK 03 AUDIO
    TITLE "Guau Guau A Go-Go"
    PERFORMER "A. Shain"
    INDEX 00 02:57:69
FILE "03 A. Shain - Guau Guau A Go-Go.wav" WAVE
    INDEX 01 00:00:00
  TRACK 04 AUDIO
    TITLE "Intensamente"
    PERFORMER "Los Saicos"
    INDEX 00 01:38:60
FILE "04 Los Saicos - Intensamente.wav" WAVE
    INDEX 01 00:00:00
  TRACK 05 AUDIO
    TITLE "Loca Por Un Loco"
    PERFORMER "Kela Gates"
    INDEX 00 02:16:03
FILE "05 Kela Gates - Loca Por Un Loco.wav" WAVE
    INDEX 01 00:00:00
  TRACK 06 AUDIO
    TITLE "Sueño Sicodélico"
    PERFORMER "Los Holy's"
    INDEX 00 02:21:41
FILE "06 Los Holy's - Sueño Sicodélico.wav" WAVE
    INDEX 01 00:00:00
  TRACK 07 AUDIO
    TITLE "En El Sol"
    PERFORMER "Los Datsun's"
    INDEX 00 02:40:69
FILE "07 Los Datsun's - En El Sol.wav" WAVE
    INDEX 01 00:00:00
  TRACK 08 AUDIO
    TITLE "Efectos"
    PERFORMER "Teddy"
    INDEX 00 03:43:54
FILE "08 Teddy - Efectos.wav" WAVE
    INDEX 01 00:00:00
  TRACK 09 AUDIO
    TITLE "Camina, No Vueles"
    PERFORMER "Los Far Fen"
    INDEX 00 03:00:06
FILE "09 Los Far Fen - Camina, No Vueles.wav" WAVE
    INDEX 01 00:00:00
  TRACK 10 AUDIO
    TITLE "Full Of Fear"
    PERFORMER "Beautiful Days"
    INDEX 00 03:05:39
FILE "10 Beautiful Days - Full Of Fear.wav" WAVE
    INDEX 01 00:00:00
  TRACK 11 AUDIO
    TITLE "Más De Ti"
    PERFORMER "Los Comandos"
    INDEX 00 03:56:52
FILE "11 Los Comandos - Más De Ti.wav" WAVE
    INDEX 01 00:00:00
  TRACK 12 AUDIO
    TITLE "Soñando Contigo"
    PERFORMER "The Same People"
    INDEX 00 03:47:12
FILE "12 The Same People - Soñando Contigo.wav" WAVE
    INDEX 01 00:00:00
  TRACK 13 AUDIO
    TITLE "Pusher"
    PERFORMER "El Opio"
    INDEX 00 02:23:55
FILE "13 El Opio - Pusher.wav" WAVE
    INDEX 01 00:00:00
  TRACK 14 AUDIO
    TITLE "Cuarto Oscuro"
    PERFORMER "Los Zheros"
    INDEX 00 02:42:44
FILE "14 Los Zheros - Cuarto Oscuro.wav" WAVE
    INDEX 01 00:00:00
  TRACK 15 AUDIO
    TITLE "Tormenta En El Mar De La Tranquilidad"
    PERFORMER "Jaguar"
    INDEX 00 02:56:52
FILE "15 Jaguar - Tormenta En El Mar De La Tranquilidad.wav" WAVE
    INDEX 01 00:00:00
  TRACK 16 AUDIO
    TITLE "Let Me Start"
    PERFORMER "Telegraph Ave."
    INDEX 00 02:37:39
FILE "16 Telegraph Ave. - Let Me Start.wav" WAVE
    INDEX 01 00:00:00
  TRACK 17 AUDIO
    TITLE "Down On My Knees Again"
    PERFORMER "Ringers"
    INDEX 00 02:46:67
FILE "17 Ringers - Down On My Knees Again.wav" WAVE
    INDEX 01 00:00:00
  TRACK 18 AUDIO
    TITLE "Rock Of All Ages"
    PERFORMER "We All Together"
    INDEX 00 02:32:05
FILE "18 We All Together - Rock Of All Ages.wav" WAVE
    INDEX 01 00:00:00
  TRACK 19 AUDIO
    TITLE "Maybe I Know"
    PERFORMER "Monik"
    INDEX 00 03:39:53
FILE "19 Monik - Maybe I Know.wav" WAVE
    INDEX 01 00:00:00
  TRACK 20 AUDIO
    TITLE "Estoy Brillando"
    PERFORMER "Fe 59"
    INDEX 00 02:49:01
FILE "20 Fe 59 - Estoy Brillando.wav" WAVE
    INDEX 01 00:00:00
Код: Выделить всё
TITLE "Back To Peru Vol 2"
REM GENRE "Rock"
REM DATE 2009
FILE "01 Los Destellos - Onstá la yerbita.wav" WAVE
  TRACK 01 AUDIO
    TITLE "Onstá la yerbita"
    PERFORMER "Los Destellos"
    INDEX 01 00:00:00
  TRACK 02 AUDIO
    TITLE "Dongoh"
    PERFORMER "Sideral"
    INDEX 00 06:09:54
FILE "02 Sideral - Dongoh.wav" WAVE
    INDEX 01 00:00:00
  TRACK 03 AUDIO
    TITLE "Everything Is Gonna Change"
    PERFORMER "Jean Paul El Troglodita"
    INDEX 00 02:56:44
FILE "03 Jean Paul El Troglodita - Everything Is Gonna Change.wav" WAVE
    INDEX 01 00:00:00
  TRACK 04 AUDIO
    TITLE "Ya bebí gran rato"
    PERFORMER "York"
    INDEX 00 03:57:41
FILE "04 York - Ya bebí gran rato.wav" WAVE
    INDEX 01 00:00:00
  TRACK 05 AUDIO
    TITLE "Tirando dedo"
    PERFORMER "Melcochita Y Sus Invitados"
    INDEX 00 03:07:22
FILE "05 Melcochita Y Sus Invitados - Tirando dedo.wav" WAVE
    INDEX 01 00:00:00
  TRACK 06 AUDIO
    TITLE "Sittin’ On My Head"
    PERFORMER "Pax"
    INDEX 00 03:51:35
FILE "06 Pax - Sittin’ On My Head.wav" WAVE
    INDEX 01 00:00:00
  TRACK 07 AUDIO
    TITLE "Pusher Men"
    PERFORMER "Los Alamos"
    INDEX 00 04:35:74
FILE "07 Los Alamos - Pusher Men.wav" WAVE
    INDEX 01 00:00:00
  TRACK 08 AUDIO
    TITLE "Pelea del gobernador"
    PERFORMER "Texao"
    INDEX 00 03:19:56
FILE "08 Texao - Pelea del gobernador.wav" WAVE
    INDEX 01 00:00:00
  TRACK 09 AUDIO
    TITLE "The Revolution"
    PERFORMER "Traffic Sound"
    INDEX 00 04:33:57
FILE "09 Traffic Sound - The Revolution.wav" WAVE
    INDEX 01 00:00:00
  TRACK 10 AUDIO
    TITLE "Haces mal pobre chico"
    PERFORMER "The Zulu"
    INDEX 00 04:22:37
FILE "10 The Zulu - Haces mal pobre chico.wav" WAVE
    INDEX 01 00:00:00
  TRACK 11 AUDIO
    TITLE "Concordancia"
    PERFORMER "El Polen"
    INDEX 00 03:19:50
FILE "11 El Polen - Concordancia.wav" WAVE
    INDEX 01 00:00:00
  TRACK 12 AUDIO
    TITLE "Cacique"
    PERFORMER "Cacique"
    INDEX 00 07:38:63
FILE "12 Cacique - Cacique.wav" WAVE
    INDEX 01 00:00:00
  TRACK 13 AUDIO
    TITLE "I Lost A Game"
    PERFORMER "Cerro Varde"
    INDEX 00 02:55:15
FILE "13 Cerro Varde - I Lost A Game.wav" WAVE
    INDEX 01 00:00:00
  TRACK 14 AUDIO
    TITLE "Yo no sé señor"
    PERFORMER "Sudamerica"
    INDEX 00 02:32:38
FILE "14 Sudamerica - Yo no sé señor.wav" WAVE
    INDEX 01 00:00:00
 
Не забывайте говорить Спасибо. Не уходите с раздачи!   
Торрент: Зарегистрирован [29 июн 2018, 11:45] Скачать торрент
Скачать торрент
[ Размер 19.42 КБ / Просмотров 6 ]
Статус:
Проверен
 
.torrent скачан: 0 раз
Хэш: 45aefda1970e7e6a83a14562a05cec1b23c3689c
Размер: 763.01 МБ (800 074 521 байт)
Стать Автором раздачи
 
 
Раздал: 0 байт
Скачал: 0 байт
Ратио: Inf.
Сообщения: 487468
Зарегистрирован: 17 апр 2014, 13:57


  • Похожие торренты
    Ответы
    Просмотры
    Последнее сообщение

Вернуться в Сборники зарубежного рока (lossless)

Ресурс не предоставляет электронные версии произведений, а занимается лишь коллекционированием и каталогизацией ссылок, присылаемых и публикуемых на форуме нашими читателями. Если вы являетесь правообладателем какого-либо представленного материала и не желаете чтобы ссылка на него находилась в нашем каталоге, свяжитесь с нами и мы незамедлительно удалим её. Файлы для обмена на трекере предоставлены пользователями сайта, и администрация не несёт ответственности за их содержание. Просьба не заливать файлы, защищенные авторскими правами, а также файлы нелегального содержания!
cron