Железный человек 2 / Iron Man 2 (Джон Фавро / Jon Favreau) [2010, США, боевик, фантастика, приключения, WEBRip-AVC] [Open Matte / Локализованный видеряд] Dub + Sub Rus Eng + Original Eng

 
 Статистика раздачи 
Размер: 2.56 ГБ   |  Зарегистрирован: 11 дек 2017, 11:54   |   .torrent скачан: 0 раз
Сидеров: 1  [ 0 байт/сек ]     Личеров: 0  [ 0 байт/сек ]  
  

Железный человек 2 / Iron Man 2 (Джон Фавро / Jon Favreau) [2010, США, боевик, фантастика, приключения, WEBRip-AVC] [Open Matte / Локализованный видеряд] Dub + Sub Rus Eng + Original Eng

Сообщение Nakazhu » 29 июн 2018, 13:44

Железный человек 2 / Iron Man 2 / Open Matte

Часть I | Часть II

Страна: США
Жанр: боевик, фантастика, приключения
Год выпуска: 2010
Продолжительность: 01:59:39
Перевод: Профессиональный (дублированный)
Субтитры: русские, английские
Оригинальная аудиодорожка: английский
Режиссер: Джон Фавро / Jon Favreau
В ролях: Роберт Дауни мл., Гвинет Пэлтроу, Дон Чидл, Скарлетт Йоханссон, Сэм Рокуэлл, Микки Рурк, Сэмюэл Л. Джексон, Кларк Грегг, Джон Слэттери, Гарри Шендлинг
Описание: Прошло полгода с тех пор, как мир узнал, что миллиардер-изобретатель Тони Старк является обладателем уникальной кибер-брони Железного человека. Общественность требует, чтобы Старк передал технологию брони правительству США, но Тони не хочет разглашать её секреты, потому что боится, что она попадёт не в те руки. Между тем, Иван Ванко — сын русского учёного когда-то работавшего на фирму Старка, но потом уволенного и лишенного всего, намерен отомстить Тони за беды своей семьи. Для чего сооружает своё высокотехнологичное оружие.
Доп. информация: Локализованный видеоряд. Исходник с онлайн-кинотеатра. Звук с лицензии. Субтитры скачаны из сети
Фильмы в Fullscreen (4:3) и Open Matte (16:9) форматах
Сэмпл: http://sendfile.su/1428053
Качество видео: WEBRip-AVC
Формат видео: MKV
Видео: MPEG-4 AVC/H.264 / 2170 kbps / 1088x612 / 25.000 fps
Аудио: DUB (Rus) / AC3 / 6 ch / 448 kbps / 48 kHz
Аудио 2: Original (Eng) / AC3 / 6 ch / 448 kbps / 48 kHz - отдельно
Формат субтитров: softsub (SRT)
Доп. информация о субтитрах: Русские (full), Английские (full)
x264 [info]: frame I:1699 Avg QP:15.81 size: 73227
x264 [info]: frame P:50924 Avg QP:19.42 size: 20562
x264 [info]: frame B:126756 Avg QP:22.71 size: 6111
General
Unique ID : 254914330836112606217419479783506010552 (0xBFC6B6DC6F58C6E8862C7DB870D961B8)
Complete name : J:\Torrents\Готовые релизы\Железный человек 2 (2010) WEBRip-AVC [Open Matte]\Железный человек 2 (2010) WEBRip-AVC [Open Matte].mkv
Format : Matroska
Format version : Version 2
File size : 2.19 GiB
Duration : 1 h 59 min
Overall bit rate : 2 618 kb/s
Movie name : Железный человек 2 / Iron Man 2 (2010) [Open Matte]
Encoded date : UTC 2018-06-25 06:14:34
Writing application : mkvmerge v5.5.0 ('Healer') built on Apr 24 2012 23:47:03
Writing library : libebml v1.2.3 + libmatroska v1.3.0
Video
ID : 1
Format : AVC
Format/Info : Advanced Video Codec
Format profile : High@L3.1
Format settings : CABAC / 8 Ref Frames
Format settings, CABAC : Yes
Format settings, ReFrames : 8 frames
Codec ID : V_MPEG4/ISO/AVC
Duration : 1 h 59 min
Bit rate : 2 170 kb/s
Width : 1 088 pixels
Height : 612 pixels
Display aspect ratio : 16:9
Frame rate mode : Constant
Frame rate : 25.000 FPS
Color space : YUV
Chroma subsampling : 4:2:0
Bit depth : 8 bits
Scan type : Progressive
Bits/(Pixel*Frame) : 0.130
Stream size : 1.77 GiB (81%)
Title : WEBRip (AVC) / MPEG-4 AVC/H.264 / 2170 kbps / 1088x612 / 25.000 fps
Writing library : x264 core 146 r2538 121396c
Encoding settings : cabac=1 / ref=8 / deblock=1:0:0 / analyse=0x3:0x113 / me=umh / subme=10 / psy=1 / psy_rd=1.00:0.00 / mixed_ref=1 / me_range=32 / chroma_me=1 / trellis=2 / 8x8dct=1 / cqm=0 / deadzone=21,11 / fast_pskip=0 / chroma_qp_offset=-2 / threads=6 / lookahead_threads=1 / sliced_threads=0 / nr=0 / decimate=1 / interlaced=0 / bluray_compat=0 / constrained_intra=0 / bframes=9 / b_pyramid=2 / b_adapt=2 / b_bias=0 / direct=3 / weightb=1 / open_gop=0 / weightp=2 / keyint=250 / keyint_min=25 / scenecut=40 / intra_refresh=0 / rc_lookahead=50 / rc=2pass / mbtree=1 / bitrate=2170 / ratetol=1.0 / qcomp=0.60 / qpmin=0 / qpmax=69 / qpstep=4 / cplxblur=20.0 / qblur=0.5 / vbv_maxrate=14000 / vbv_bufsize=14000 / nal_hrd=none / filler=0 / ip_ratio=1.40 / aq=1:1.00
Language : Russian
Default : Yes
Forced : Yes
Audio
ID : 2
Format : AC-3
Format/Info : Audio Coding 3
Codec ID : A_AC3
Duration : 1 h 59 min
Bit rate mode : Constant
Bit rate : 448 kb/s
Channel(s) : 6 channels
Channel positions : Front: L C R, Side: L R, LFE
Sampling rate : 48.0 kHz
Frame rate : 31.250 FPS (1536 SPF)
Bit depth : 16 bits
Compression mode : Lossy
Stream size : 383 MiB (17%)
Title : DUB (Rus) / AC3 / 6 ch / 448 kbps / 48 kHz
Language : Russian
Service kind : Complete Main
Default : Yes
Forced : Yes
Text #1
ID : 3
Format : UTF-8
Codec ID : S_TEXT/UTF8
Codec ID/Info : UTF-8 Plain Text
Title : Full (Rus) / S_TEXT/UTF8
Language : Russian
Default : No
Forced : No
Text #2
ID : 4
Format : UTF-8
Codec ID : S_TEXT/UTF8
Codec ID/Info : UTF-8 Plain Text
Title : Full (Eng) / S_TEXT/UTF8
Language : English
Default : No
Forced : No
Scope (2.35:1) >>>>>>>>>>>>>>>>>>>>>>>>>>>>>>> Open Matte (16:9) >>>>>>>>>>>>>>>>>>>>>>>>>>>>>>> FullScreen (4:3)



Данный релиз

HDTV 1080i -> http://rutracker.org/forum/viewtopic.php?t=5449291

HDTVRip-AVC заменён на WEBRip-AVC
Замена звука на нормальный и более качественный
Старый рип:

Новый рип:
Цитата:
    Исходник предоставлен пользователем andpov
  • Звуковые дорожки взяты из раздачи пользователя Maks Lebedev
[/spoiler]
 
Не забывайте говорить Спасибо. Не уходите с раздачи!   
Торрент: Зарегистрирован [11 дек 2017, 11:54] Для скачивания .torrent
необходима регистрация
Или скачать с помощью
MediaGet
Статус:
Проверен
 
.torrent скачан: 0 раз
Хэш: 061162d035ed67237452571f81fa6ff28288b161
Размер: 2.56 ГБ (2 751 311 958 байт)
Стать Автором раздачи
 
 
Раздал: 0 байт
Скачал: 0 байт
Ратио: Inf.
Сообщения: 487468
Зарегистрирован: 17 апр 2014, 13:57


  • Похожие торренты
    Ответы
    Просмотры
    Последнее сообщение

Вернуться в Зарубежные фильмы 2006-2010 года

Ресурс не предоставляет электронные версии произведений, а занимается лишь коллекционированием и каталогизацией ссылок, присылаемых и публикуемых на форуме нашими читателями. Если вы являетесь правообладателем какого-либо представленного материала и не желаете чтобы ссылка на него находилась в нашем каталоге, свяжитесь с нами и мы незамедлительно удалим её. Файлы для обмена на трекере предоставлены пользователями сайта, и администрация не несёт ответственности за их содержание. Просьба не заливать файлы, защищенные авторскими правами, а также файлы нелегального содержания!
cron