Железный человек / Iron Man (Джон Фавро / Jon Favreau) [2008, США, Фантастика, боевик, приключения, WEBRip-AVC] [Open Matte / Локализованный видеряд] Dub + Sub Rus Eng + Original Eng

 
 Статистика раздачи 
Размер: 2.57 ГБ   |  Зарегистрирован: 02 авг 2017, 09:15   |   .torrent скачан: 0 раз
Сидеров: 1  [ 0 байт/сек ]     Личеров: 0  [ 0 байт/сек ]  
  

Железный человек / Iron Man (Джон Фавро / Jon Favreau) [2008, США, Фантастика, боевик, приключения, WEBRip-AVC] [Open Matte / Локализованный видеряд] Dub + Sub Rus Eng + Original Eng

Сообщение Nakazhu » 29 июн 2018, 13:44

Железный человек / Iron Man / Open Matte

Часть I | Часть II

Год выпуска: 2008
Страна: США
Жанр: Фантастика, боевик, приключения
Продолжительность: 02:00:59
Перевод: Профессиональный (дублированный)
Субтитры: русские, английские
Оригинальная аудиодорожка: английский
Режиссер: Джон Фавро / Jon Favreau
В ролях: Роберт Дауни мл., Джефф Бриджес, Гвинет Пэлтроу, Терренс Ховард, Джон Фавро, Лесли Бибб, Шон Тоуб, Фаран Таир, Кларк Грегг, Билл Смитрович, Саид Бадрия, Пол Беттани
Описание: Миллиардер изобретатель Тони Старк попадает в плен к Афганским террористам, которые пытаются заставить его создать оружие массового поражения. В тайне от своих захватчиков Старк конструирует высокотехнологичную киберброню, которая помогает ему сбежать. Однако по возвращению в США он узнаёт, что в совете директоров его фирмы плетётся заговор, чреватый страшными последствиями. Используя своё последнее изобретение, Старк пытается решить проблемы своей компании радикально...
Доп. информация: Локализованный видеоряд. Исходник с онлайн-кинотеатра. Звук с лицензии
Фильмы в Fullscreen (4:3) и Open Matte (16:9) форматах
Сэмпл: http://sendfile.su/1428051
Качество видео: WEBRip-AVC
Формат видео: MKV
Видео: MPEG-4 AVC/H.264 / 2140 kbps / 1088x612 / 25.000 fps
Аудио: DUB (Rus) / AC3 / 6 ch / 448 kbps / 48 kHz
Аудио 2: Original (Eng) / AC3 / 6 ch / 448 kbps / 48 kHz - отдельно
Формат субтитров: softsub (SRT)
Доп. информация о субтитрах: Русские (full), Английские (full)
x264 [info]: frame I:1474 Avg QP:15.25 size: 71024
x264 [info]: frame P:51037 Avg QP:18.94 size: 20541
x264 [info]: frame B:128895 Avg QP:22.32 size: 6110
General
Unique ID : 248008102093186403037594471484928058249 (0xBA949F7EB5C3C102831A290BE1906389)
Complete name : J:\Torrents\Готовые релизы\Железный человек (2008) WEBRip-AVC [Open Matte]\Железный человек (2008) WEBRip-AVC [Open Matte].mkv
Format : Matroska
Format version : Version 2
File size : 2.19 GiB
Duration : 2 h 0 min
Overall bit rate : 2 588 kb/s
Movie name : Железный человек / Iron Man (2008) [Open Matte]
Encoded date : UTC 2018-06-28 19:44:54
Writing application : mkvmerge v5.5.0 ('Healer') built on Apr 24 2012 23:47:03
Writing library : libebml v1.2.3 + libmatroska v1.3.0
Cover : Yes
Attachments : Cover.jpg
Video
ID : 1
Format : AVC
Format/Info : Advanced Video Codec
Format profile : High@L3.1
Format settings : CABAC / 8 Ref Frames
Format settings, CABAC : Yes
Format settings, ReFrames : 8 frames
Codec ID : V_MPEG4/ISO/AVC
Duration : 2 h 0 min
Bit rate : 2 140 kb/s
Width : 1 088 pixels
Height : 612 pixels
Display aspect ratio : 16:9
Frame rate mode : Constant
Frame rate : 25.000 FPS
Color space : YUV
Chroma subsampling : 4:2:0
Bit depth : 8 bits
Scan type : Progressive
Bits/(Pixel*Frame) : 0.129
Stream size : 1.77 GiB (81%)
Title : WEBRip (AVC) / MPEG-4 AVC/H.264 / 2140 kbps / 1088x612 / 25.000 fps
Writing library : x264 core 146 r2538 121396c
Encoding settings : cabac=1 / ref=8 / deblock=1:0:0 / analyse=0x3:0x113 / me=umh / subme=10 / psy=1 / psy_rd=1.00:0.00 / mixed_ref=1 / me_range=32 / chroma_me=1 / trellis=2 / 8x8dct=1 / cqm=0 / deadzone=21,11 / fast_pskip=0 / chroma_qp_offset=-2 / threads=6 / lookahead_threads=1 / sliced_threads=0 / nr=0 / decimate=1 / interlaced=0 / bluray_compat=0 / constrained_intra=0 / bframes=9 / b_pyramid=2 / b_adapt=2 / b_bias=0 / direct=3 / weightb=1 / open_gop=0 / weightp=2 / keyint=250 / keyint_min=25 / scenecut=40 / intra_refresh=0 / rc_lookahead=50 / rc=2pass / mbtree=1 / bitrate=2140 / ratetol=1.0 / qcomp=0.60 / qpmin=0 / qpmax=69 / qpstep=4 / cplxblur=20.0 / qblur=0.5 / vbv_maxrate=14000 / vbv_bufsize=14000 / nal_hrd=none / filler=0 / ip_ratio=1.40 / aq=1:1.00
Language : English
Default : Yes
Forced : Yes
Audio
ID : 2
Format : AC-3
Format/Info : Audio Coding 3
Codec ID : A_AC3
Duration : 2 h 0 min
Bit rate mode : Constant
Bit rate : 448 kb/s
Channel(s) : 6 channels
Channel positions : Front: L C R, Side: L R, LFE
Sampling rate : 48.0 kHz
Frame rate : 31.250 FPS (1536 SPF)
Bit depth : 16 bits
Compression mode : Lossy
Stream size : 388 MiB (17%)
Title : DUB (Rus) / AС3 / 6 ch / 448 kbps / 48 kHz
Language : Russian
Service kind : Complete Main
Default : Yes
Forced : Yes
Text #1
ID : 3
Format : UTF-8
Codec ID : S_TEXT/UTF8
Codec ID/Info : UTF-8 Plain Text
Title : Full (Rus) / S_TEXT/UTF8
Language : Russian
Default : No
Forced : No
Text #2
ID : 4
Format : UTF-8
Codec ID : S_TEXT/UTF8
Codec ID/Info : UTF-8 Plain Text
Title : Full (Eng) / S_TEXT/UTF8
Language : English
Default : No
Forced : No
Scope (2.35:1) >>>>>>>>>>>>>>>>>>>>>>>>>>>>>>> Open Matte (16:9) >>>>>>>>>>>>>>>>>>>>>>>>>>>>>>> FullScreen (4:3)



Данный релиз

HDTV 1080i -> http://rutracker.org/forum/viewtopic.php?t=5449076

Hybrid 1080p

HDTVRip-AVC заменён на WEBRip-AVC
Замена звука на нормальный и более качественный
Старый рип:

Новый рип:
Цитата:
    Исходник предоставлен пользователем andpov
  • Звуковые дорожки взяты из раздачи пользователя Andrik22
[/spoiler]
 
Не забывайте говорить Спасибо. Не уходите с раздачи!   
Торрент: Зарегистрирован [02 авг 2017, 09:15] Для скачивания .torrent
необходима регистрация
Или скачать с помощью
MediaGet
Статус:
Проверен
 
.torrent скачан: 0 раз
Хэш: d505dbf4bafcaae382094b5263f37bf3300cd0de
Размер: 2.57 ГБ (2 754 632 631 байт)
Стать Автором раздачи
 
 
Раздал: 0 байт
Скачал: 0 байт
Ратио: Inf.
Сообщения: 487468
Зарегистрирован: 17 апр 2014, 13:57


  • Похожие торренты
    Ответы
    Просмотры
    Последнее сообщение

Вернуться в Зарубежные фильмы 2006-2010 года

Ресурс не предоставляет электронные версии произведений, а занимается лишь коллекционированием и каталогизацией ссылок, присылаемых и публикуемых на форуме нашими читателями. Если вы являетесь правообладателем какого-либо представленного материала и не желаете чтобы ссылка на него находилась в нашем каталоге, свяжитесь с нами и мы незамедлительно удалим её. Файлы для обмена на трекере предоставлены пользователями сайта, и администрация не несёт ответственности за их содержание. Просьба не заливать файлы, защищенные авторскими правами, а также файлы нелегального содержания!
cron