(Drum n Bass, Industrial, Breakbeat, Techno) [CD] DJ Acucrack - Mako vs. Geist - 2004, FLAC (tracks+.cue), lossless

 
 Статистика раздачи 
Размер: 479.96 МБ   |  Зарегистрирован: 29 июн 2018, 10:04   |   .torrent скачан: 0 раз
Сидеров: 1  [ 0 байт/сек ]     Личеров: 0  [ 0 байт/сек ]  
  

(Drum n Bass, Industrial, Breakbeat, Techno) [CD] DJ Acucrack - Mako vs. Geist - 2004, FLAC (tracks+.cue), lossless

Сообщение Nakazhu » 29 июн 2018, 13:13

DJ Acucrack / Mako vs. Geist
Жанр: Drum n Bass, Industrial, Breakbeat, Techno
Носитель: CD
Страна-производитель диска (релиза): US
Год издания: 2004
Издатель (лейбл): Underground, Inc.
Номер по каталогу: UIN1097
Страна исполнителя (группы): US
Аудиокодек: FLAC (*.flac)
Тип рипа: tracks+.cue
Битрейт аудио: lossless
Продолжительность: 01:10:26
Источник (релизер): Usenet
Наличие сканов в содержимом раздачи: нет
Треклист:
1 Damage Control 5:53
2 Gangland (Volume I) 5:28
3 My Blood 5:44
4 Disconnector 3:23
5 Chronic Suspension 5:04
6 Mighty Fine 6:13
7 Killa Freeze 3:35
8 Balthazars Revenge 6:23
9 Scaldron 4:39
10 Get Wikkid (Glitsch VIP) 4:37
11 So To Speak (Crash Addict Remix) 5:59
12 Destroyah 4:34
13 Gangland (Volume III) 8:49
Код: Выделить всё
X Lossless Decoder version 20090930 (110.0)
XLD extraction logfile from 2009-10-03 18:06:22 -0400
DJ? Acucrack / Mako VS. Geist
Used drive : HL-DT-ST DVDRW  GS23N (revision SB00)
Use cdparanoia mode     : YES (CDParanoia III 10.2 engine)
Disable audio cache     : OK for the drive with cache less than 2750KB
Make use of C2 pointers : NO
Read offset correction  : 667
Max retry count         : 100
TOC of the extracted CD
     Track |   Start  |  Length  | Start sector | End sector
    ---------------------------------------------------------
        1  | 00:00:00 | 05:53:16 |         0    |    26490
        2  | 05:53:16 | 05:28:65 |     26491    |    51155
        3  | 11:22:06 | 05:44:26 |     51156    |    76981
        4  | 17:06:32 | 03:23:05 |     76982    |    92211
        5  | 20:29:37 | 05:04:00 |     92212    |   115011
        6  | 25:33:37 | 06:13:29 |    115012    |   143015
        7  | 31:46:66 | 03:35:48 |    143016    |   159188
        8  | 35:22:39 | 06:23:39 |    159189    |   187952
        9  | 41:46:03 | 04:39:59 |    187953    |   208936
       10  | 46:25:62 | 04:37:18 |    208937    |   229729
       11  | 51:03:05 | 05:59:37 |    229730    |   256691
       12  | 57:02:42 | 04:34:24 |    256692    |   277265
       13  | 61:36:66 | 08:49:50 |    277266    |   316990
All Tracks
    Album gain             : -12.32 dB
    Peak                   : 0.988831
Track 01
    Filename : /Users/mike/Music/XLD/01 - Damage Report.flac
               /Users/mike/Music/XLD/01 - Damage Report.mp3
    Track gain             : -11.17 dB
    Peak                   : 0.988831
    CRC32 hash (test run)  : 818F134B
    CRC32 hash             : 818F134B
    CRC32 hash (skip zero) : 9C9836D1
    AccurateRip signature  : A5985380
        ->Accurately ripped! (confidence 6)
    Statistics
        Read error                           : 0
        Skipped (treated as error)           : 0
        Edge jitter error (maybe fixed)      : 0
        Atom jitter error (maybe fixed)      : 0
        Drift error (maybe fixed)            : 0
        Dropped bytes error (maybe fixed)    : 0
        Duplicated bytes error (maybe fixed) : 0
        Inconsistency in error sectors       : 0
Track 02
    Filename : /Users/mike/Music/XLD/02 - Gangland (Volume I).flac
               /Users/mike/Music/XLD/02 - Gangland (Volume I).mp3
    Track gain             : -10.67 dB
    Peak                   : 0.988831
    CRC32 hash (test run)  : 3D2072BE
    CRC32 hash             : 3D2072BE
    CRC32 hash (skip zero) : 819CC635
    AccurateRip signature  : 1518D19D
        ->Accurately ripped! (confidence 6)
    Statistics
        Read error                           : 0
        Skipped (treated as error)           : 0
        Edge jitter error (maybe fixed)      : 0
        Atom jitter error (maybe fixed)      : 0
        Drift error (maybe fixed)            : 0
        Dropped bytes error (maybe fixed)    : 0
        Duplicated bytes error (maybe fixed) : 0
        Inconsistency in error sectors       : 0
Track 03
    Filename : /Users/mike/Music/XLD/03 - My Blood.flac
               /Users/mike/Music/XLD/03 - My Blood.mp3
    Track gain             : -10.11 dB
    Peak                   : 0.988831
    CRC32 hash (test run)  : 8826624C
    CRC32 hash             : 8826624C
    CRC32 hash (skip zero) : AEF78F84
    AccurateRip signature  : A8BBC789
        ->Accurately ripped! (confidence 6)
    Statistics
        Read error                           : 0
        Skipped (treated as error)           : 0
        Edge jitter error (maybe fixed)      : 0
        Atom jitter error (maybe fixed)      : 0
        Drift error (maybe fixed)            : 0
        Dropped bytes error (maybe fixed)    : 0
        Duplicated bytes error (maybe fixed) : 0
        Inconsistency in error sectors       : 0
Track 04
    Filename : /Users/mike/Music/XLD/04 - Disconnector.flac
               /Users/mike/Music/XLD/04 - Disconnector.mp3
    Track gain             : -7.07 dB
    Peak                   : 0.988831
    CRC32 hash (test run)  : 4FC1565C
    CRC32 hash             : 4FC1565C
    CRC32 hash (skip zero) : F41C8DAF
    AccurateRip signature  : 4E5F7B6E
        ->Accurately ripped! (confidence 6)
    Statistics
        Read error                           : 0
        Skipped (treated as error)           : 0
        Edge jitter error (maybe fixed)      : 0
        Atom jitter error (maybe fixed)      : 0
        Drift error (maybe fixed)            : 0
        Dropped bytes error (maybe fixed)    : 0
        Duplicated bytes error (maybe fixed) : 0
        Inconsistency in error sectors       : 0
Track 05
    Filename : /Users/mike/Music/XLD/05 - Chronic Suspension.flac
               /Users/mike/Music/XLD/05 - Chronic Suspension.mp3
    Track gain             : -11.23 dB
    Peak                   : 0.988831
    CRC32 hash (test run)  : 1CC63099
    CRC32 hash             : 1CC63099
    CRC32 hash (skip zero) : 08CAE84A
    AccurateRip signature  : D1232E1A
        ->Accurately ripped! (confidence 6)
    Statistics
        Read error                           : 0
        Skipped (treated as error)           : 0
        Edge jitter error (maybe fixed)      : 0
        Atom jitter error (maybe fixed)      : 0
        Drift error (maybe fixed)            : 0
        Dropped bytes error (maybe fixed)    : 0
        Duplicated bytes error (maybe fixed) : 0
        Inconsistency in error sectors       : 0
Track 06
    Filename : /Users/mike/Music/XLD/06 - Mighty Fine.flac
               /Users/mike/Music/XLD/06 - Mighty Fine.mp3
    Track gain             : -11.54 dB
    Peak                   : 0.988831
    CRC32 hash (test run)  : 601E3824
    CRC32 hash             : 601E3824
    CRC32 hash (skip zero) : 69A63C07
    AccurateRip signature  : B2823BD7
        ->Accurately ripped! (confidence 6)
    Statistics
        Read error                           : 0
        Skipped (treated as error)           : 0
        Edge jitter error (maybe fixed)      : 0
        Atom jitter error (maybe fixed)      : 0
        Drift error (maybe fixed)            : 0
        Dropped bytes error (maybe fixed)    : 0
        Duplicated bytes error (maybe fixed) : 0
        Inconsistency in error sectors       : 0
Track 07
    Filename : /Users/mike/Music/XLD/07 - Killa Freeze.flac
               /Users/mike/Music/XLD/07 - Killa Freeze.mp3
    Track gain             : -11.20 dB
    Peak                   : 0.988831
    CRC32 hash (test run)  : 40F2EFB2
    CRC32 hash             : 40F2EFB2
    CRC32 hash (skip zero) : 645CF6C7
    AccurateRip signature  : EF7E4FB6
        ->Accurately ripped! (confidence 6)
    Statistics
        Read error                           : 0
        Skipped (treated as error)           : 0
        Edge jitter error (maybe fixed)      : 0
        Atom jitter error (maybe fixed)      : 0
        Drift error (maybe fixed)            : 0
        Dropped bytes error (maybe fixed)    : 0
        Duplicated bytes error (maybe fixed) : 0
        Inconsistency in error sectors       : 0
Track 08
    Filename : /Users/mike/Music/XLD/08 - Sniper Code.flac
               /Users/mike/Music/XLD/08 - Sniper Code.mp3
    Track gain             : -12.51 dB
    Peak                   : 0.988831
    CRC32 hash (test run)  : A081FDF4
    CRC32 hash             : A081FDF4
    CRC32 hash (skip zero) : 55A1F39D
    AccurateRip signature  : BD13B978
        ->Accurately ripped! (confidence 6)
    Statistics
        Read error                           : 0
        Skipped (treated as error)           : 0
        Edge jitter error (maybe fixed)      : 0
        Atom jitter error (maybe fixed)      : 0
        Drift error (maybe fixed)            : 0
        Dropped bytes error (maybe fixed)    : 0
        Duplicated bytes error (maybe fixed) : 0
        Inconsistency in error sectors       : 0
Track 09
    Filename : /Users/mike/Music/XLD/09 - Scaldron.flac
               /Users/mike/Music/XLD/09 - Scaldron.mp3
    Track gain             : -13.96 dB
    Peak                   : 0.988831
    CRC32 hash (test run)  : BD5F95B6
    CRC32 hash             : BD5F95B6
    CRC32 hash (skip zero) : 374EDE22
    AccurateRip signature  : 6BFE5B5E
        ->Accurately ripped! (confidence 6)
    Statistics
        Read error                           : 0
        Skipped (treated as error)           : 0
        Edge jitter error (maybe fixed)      : 0
        Atom jitter error (maybe fixed)      : 0
        Drift error (maybe fixed)            : 0
        Dropped bytes error (maybe fixed)    : 0
        Duplicated bytes error (maybe fixed) : 0
        Inconsistency in error sectors       : 0
Track 10
    Filename : /Users/mike/Music/XLD/10 - Get Wikkid (Glitsch VIP).flac
               /Users/mike/Music/XLD/10 - Get Wikkid (Glitsch VIP).mp3
    Track gain             : -13.57 dB
    Peak                   : 0.988831
    CRC32 hash (test run)  : 943956A5
    CRC32 hash             : 943956A5
    CRC32 hash (skip zero) : EBC7E1DF
    AccurateRip signature  : 0D0CF32C
        ->Accurately ripped! (confidence 6)
    Statistics
        Read error                           : 0
        Skipped (treated as error)           : 0
        Edge jitter error (maybe fixed)      : 0
        Atom jitter error (maybe fixed)      : 0
        Drift error (maybe fixed)            : 0
        Dropped bytes error (maybe fixed)    : 0
        Duplicated bytes error (maybe fixed) : 0
        Inconsistency in error sectors       : 0
Track 11
    Filename : /Users/mike/Music/XLD/11 - So to Speak (Crash Addict Remix).flac
               /Users/mike/Music/XLD/11 - So to Speak (Crash Addict Remix).mp3
    Track gain             : -13.09 dB
    Peak                   : 0.988831
    CRC32 hash (test run)  : 77AAB735
    CRC32 hash             : 77AAB735
    CRC32 hash (skip zero) : 3BA7B343
    AccurateRip signature  : 4DC39D9F
        ->Accurately ripped! (confidence 6)
    Statistics
        Read error                           : 0
        Skipped (treated as error)           : 0
        Edge jitter error (maybe fixed)      : 0
        Atom jitter error (maybe fixed)      : 0
        Drift error (maybe fixed)            : 0
        Dropped bytes error (maybe fixed)    : 0
        Duplicated bytes error (maybe fixed) : 0
        Inconsistency in error sectors       : 0
Track 12
    Filename : /Users/mike/Music/XLD/12 - Destroyah.flac
               /Users/mike/Music/XLD/12 - Destroyah.mp3
    Track gain             : -13.30 dB
    Peak                   : 0.988831
    CRC32 hash (test run)  : 8FB13ABC
    CRC32 hash             : 8FB13ABC
    CRC32 hash (skip zero) : 74CD11FD
    AccurateRip signature  : BD189AF6
        ->Accurately ripped! (confidence 6)
    Statistics
        Read error                           : 0
        Skipped (treated as error)           : 0
        Edge jitter error (maybe fixed)      : 0
        Atom jitter error (maybe fixed)      : 0
        Drift error (maybe fixed)            : 0
        Dropped bytes error (maybe fixed)    : 0
        Duplicated bytes error (maybe fixed) : 0
        Inconsistency in error sectors       : 0
Track 13
    Filename : /Users/mike/Music/XLD/13 - Gangland (Volume III).flac
               /Users/mike/Music/XLD/13 - Gangland (Volume III).mp3
    Track gain             : -10.92 dB
    Peak                   : 0.988831
    CRC32 hash (test run)  : 7E807222
    CRC32 hash             : 7E807222
    CRC32 hash (skip zero) : 69FE042A
    AccurateRip signature  : 3C46E296
        ->Accurately ripped! (confidence 6)
    Statistics
        Read error                           : 0
        Skipped (treated as error)           : 0
        Edge jitter error (maybe fixed)      : 1
        Atom jitter error (maybe fixed)      : 0
        Drift error (maybe fixed)            : 0
        Dropped bytes error (maybe fixed)    : 0
        Duplicated bytes error (maybe fixed) : 0
        Inconsistency in error sectors       : 0
No errors occurred
End of status report
Код: Выделить всё
TITLE "Mako VS. Geist"
PERFORMER "DJ? Acucrack"
REM GENRE "Electronic"
REM DATE 2004
FILE "01 - Damage Report.wav" WAVE
  TRACK 01 AUDIO
    TITLE "Damage Report"
    INDEX 01 00:00:00
FILE "02 - Gangland (Volume I).wav" WAVE
  TRACK 02 AUDIO
    TITLE "Gangland (Volume I)"
    INDEX 01 00:00:00
FILE "03 - My Blood.wav" WAVE
  TRACK 03 AUDIO
    TITLE "My Blood"
    INDEX 01 00:00:00
FILE "04 - Disconnector.wav" WAVE
  TRACK 04 AUDIO
    TITLE "Disconnector"
    INDEX 01 00:00:00
FILE "05 - Chronic Suspension.wav" WAVE
  TRACK 05 AUDIO
    TITLE "Chronic Suspension"
    INDEX 01 00:00:00
FILE "06 - Mighty Fine.wav" WAVE
  TRACK 06 AUDIO
    TITLE "Mighty Fine"
    INDEX 01 00:00:00
FILE "07 - Killa Freeze.wav" WAVE
  TRACK 07 AUDIO
    TITLE "Killa Freeze"
    INDEX 01 00:00:00
FILE "08 - Sniper Code.wav" WAVE
  TRACK 08 AUDIO
    TITLE "Sniper Code"
    INDEX 01 00:00:00
FILE "09 - Scaldron.wav" WAVE
  TRACK 09 AUDIO
    TITLE "Scaldron"
    INDEX 01 00:00:00
FILE "10 - Get Wikkid (Glitsch VIP).wav" WAVE
  TRACK 10 AUDIO
    TITLE "Get Wikkid (Glitsch VIP)"
    INDEX 01 00:00:00
FILE "11 - So to Speak (Crash Addict Remix).wav" WAVE
  TRACK 11 AUDIO
    TITLE "So to Speak (Crash Addict Remix)"
    INDEX 01 00:00:00
FILE "12 - Destroyah.wav" WAVE
  TRACK 12 AUDIO
    TITLE "Destroyah"
    INDEX 01 00:00:00
FILE "13 - Gangland (Volume III).wav" WAVE
  TRACK 13 AUDIO
    TITLE "Gangland (Volume III)"
    INDEX 01 00:00:00
 
Не забывайте говорить Спасибо. Не уходите с раздачи!   
Торрент: Зарегистрирован [29 июн 2018, 10:04] Скачать торрент
Скачать торрент
[ Размер 20.04 КБ / Просмотров 3 ]
Статус:
Проверен
 
.torrent скачан: 0 раз
Хэш: fc32ca68c93825519de58b1f732da0975235fc49
Размер: 479.96 МБ (503 272 100 байт)
Стать Автором раздачи
 
 
Раздал: 0 байт
Скачал: 0 байт
Ратио: Inf.
Сообщения: 487468
Зарегистрирован: 17 апр 2014, 13:57


  • Похожие торренты
    Ответы
    Просмотры
    Последнее сообщение

Вернуться в Drum & Bass, Jungle (lossless)

Ресурс не предоставляет электронные версии произведений, а занимается лишь коллекционированием и каталогизацией ссылок, присылаемых и публикуемых на форуме нашими читателями. Если вы являетесь правообладателем какого-либо представленного материала и не желаете чтобы ссылка на него находилась в нашем каталоге, свяжитесь с нами и мы незамедлительно удалим её. Файлы для обмена на трекере предоставлены пользователями сайта, и администрация не несёт ответственности за их содержание. Просьба не заливать файлы, защищенные авторскими правами, а также файлы нелегального содержания!
cron