(Progressive Rock) [CD] VA - Prog - P34: The Chamber Of 32 Doors - 2015 FLAC (tracks+.cue), lossless

 
 Статистика раздачи 
Размер: 389.91 МБ   |  Зарегистрирован: 29 июн 2018, 09:47   |   .torrent скачан: 0 раз
Сидеров: 1  [ 0 байт/сек ]     Личеров: 0  [ 0 байт/сек ]  
  

(Progressive Rock) [CD] VA - Prog - P34: The Chamber Of 32 Doors - 2015 FLAC (tracks+.cue), lossless

Сообщение Nakazhu » 29 июн 2018, 12:56


Prog - P34: The Chamber Of 32 Doors




• Жанр: Progressive Rock
• Носитель: CD
• Страна-производитель диска (релиза): UK
• Год издания: 2015
• Издатель (лейбл) Prog Magazine, TeamRock
• Номер по каталогу: ROP56CD-06-15
• Аудиокодек: FLAC (*.flac)
• Тип рипа: tracks+.cue
• Продолжительность: 00:58:23
• Источник (релизер): Summerisle ®
• Наличие сканов: да

01. Ozric Tentacles - Changa Masala (00:06:05)
02. David Cross and Robert Fripp - Sure Of The Dark (00:03:55)
03. Galley Beggar - Adam And Eve (00:05:37)
04. Sweet Billy Pilgrim - Coloma Blues (00:05:20)
05. Karnataka - Because Of You (00:04:55)
06. Native Construct - Mute (00:06:23)
07. Metallic Taste Of Blood - Ipsissimus (00:04:54)
08. Magic Pie - According To Plan (00:06:33)
09. Arcane - Keeping Stone, Sound On Fire (00:09:24)
10. Lorenzo Feliciati - Noir Alley Verdigris (00:05:13)

Код: Выделить всё
-----------------------
DON'T MODIFY THIS FILE
-----------------------
PERFORMER: auCDtect Task Manager, ver. 1.5.1RC3 build 1.5.1.4
Copyright (c) 2008-2010 y-soft. All rights reserved
[url=http://y-soft.org]http://y-soft.org[/url]
ANALYZER: auCDtect: CD records authenticity detector, version 0.8.2
Copyright (c) 2004 Oleg Berngardt. All rights reserved.
Copyright (c) 2004 Alexander Djourik. All rights reserved.
FILE: 10. Lorenzo Feliciati - Noir Alley Verdigris.flac
  Size: 30815710 Hash: 6FFBFD8BD91A16D1EB3C073B61AEDA6E Accuracy: -m0
  Conclusion: CDDA 99%
  Signature: 4B592744340E9B6CD77EDB69709F2EC99265437A
FILE: 09. Arcane - Keeping Stone, Sound On Fire.flac
  Size: 70183946 Hash: 35C326688048E75715F952C7591ECE98 Accuracy: -m0
  Conclusion: CDDA 100%
  Signature: E386F6F798237A23A152B9B4B3D9B54F4801EBB6
FILE: 08. Magic Pie - According To Plan.flac
  Size: 50555904 Hash: 818C5074996810E319A1B4F497F6DF7B Accuracy: -m0
  Conclusion: CDDA 100%
  Signature: 8B642B3997D91FD69414751F533E88D641270FFD
FILE: 07. Metallic Taste Of Blood - Ipsissimus.flac
  Size: 32916622 Hash: 303F618FFC6C66F8481D7AD236658738 Accuracy: -m0
  Conclusion: CDDA 100%
  Signature: 16382512E30166C2B31C374AC6E982EBA85560F7
FILE: 06. Native Construct - Mute.flac
  Size: 45261198 Hash: 3C0E6E4E111511114F9223417FF26775 Accuracy: -m0
  Conclusion: CDDA 99%
  Signature: 6DFF8C1A517EC81EABEFFEF6A13A2B0ED324756D
FILE: 05. Karnataka - Because Of You.flac
  Size: 37104577 Hash: DC45E572A6D844538F43295343642303 Accuracy: -m0
  Conclusion: CDDA 100%
  Signature: 11424063CBD5E616D96304F67F7F20E8D7BC44F8
FILE: 04. Sweet Billy Pilgrim - Coloma Blues.flac
  Size: 36420430 Hash: 2F1AE44A73BA41745E60A2BE7BD71637 Accuracy: -m0
  Conclusion: CDDA 100%
  Signature: E4376569AF083FEDBB61D0988B58B3A61442DC3A
FILE: 03. Galley Beggar - Adam And Eve.flac
  Size: 37679048 Hash: 7EBB235ADA294DFFB6899216154AB810 Accuracy: -m0
  Conclusion: CDDA 100%
  Signature: E70C8032E8CC31F0998101D889829F64F3707E42
FILE: 02. David Cross and Robert Fripp - Sure Of The Dark.flac
  Size: 20458211 Hash: 6B644E059E55A8F0003B449299E912F8 Accuracy: -m0
  Conclusion: CDDA 100%
  Signature: 472EC55DBC86C5042A9F37C539F9A51D43E4A922
FILE: 01. Ozric Tentacles - Changa Masala.flac
  Size: 46020614 Hash: 3CFBA5B3577C09C5704977700FCDD197 Accuracy: -m0
  Conclusion: CDDA 100%
  Signature: 56DBBB3F12604F0265E3C4FDADF09BE56B714F77

Код: Выделить всё
Exact Audio Copy V1.0 beta 3 from 29. August 2011
EAC extraction logfile from 28. May 2015, 10:40
Various Artists / Prog P34: The Chamber Of 32 Doors
Used drive  : ATAPI   iHAS124   W   Adapter: 1  ID: 0
Read mode               : Secure
Utilize accurate stream : Yes
Defeat audio cache      : Yes
Make use of C2 pointers : No
Read offset correction                      : 48
Overread into Lead-In and Lead-Out          : No
Fill up missing offset samples with silence : Yes
Delete leading and trailing silent blocks   : No
Null samples used in CRC calculations       : Yes
Used interface                              : Native Win32 interface for Win NT & 2000
Gap handling                                : Appended to previous track
Used output format              : User Defined Encoder
Selected bitrate                : 896 kBit/s
Quality                         : High
Add ID3 tag                     : No
Command line compressor         : C:\Program Files (x86)\FLAC Frontend\tools\flac.exe
Additional command line options : -8 -V -T "artist=%artist%" -T "albumartist=%albumartist%" -T "album=%albumtitle%" -T "title=%title%" -T "year=%year%" -T "tracknumber=%tracknr2%" -T "genre=%genre%" %source% -o %dest%
TOC of the extracted CD
     Track |   Start  |  Length  | Start sector | End sector
    ---------------------------------------------------------
        1  |  0:00.00 |  6:05.11 |         0    |    27385
        2  |  6:05.11 |  3:55.58 |     27386    |    45068
        3  | 10:00.69 |  5:37.08 |     45069    |    70351
        4  | 15:38.02 |  5:20.07 |     70352    |    94358
        5  | 20:58.09 |  4:55.31 |     94359    |   116514
        6  | 25:53.40 |  6:23.36 |    116515    |   145275
        7  | 32:17.01 |  4:54.18 |    145276    |   167343
        8  | 37:11.19 |  6:33.53 |    167344    |   196871
        9  | 43:44.72 |  9:24.32 |    196872    |   239203
       10  | 53:09.29 |  5:13.57 |    239204    |   262735
Track  1
     Filename F:\My Documents\My Music\Albums (Complete)\01. Ozric Tentacles - Changa Masala.wav
     Pre-gap length  0:00:02.00
     Peak level 100.0 %
     Extraction speed 4.8 X
     Track quality 100.0 %
     Test CRC 67BB5AB4
     Copy CRC 67BB5AB4
     Track not present in AccurateRip database
     Copy OK
Track  2
     Filename F:\My Documents\My Music\Albums (Complete)\02. David Cross and Robert Fripp - Sure Of The Dark.wav
     Pre-gap length  0:00:02.00
     Peak level 98.8 %
     Extraction speed 5.2 X
     Track quality 100.0 %
     Test CRC E2E4D22C
     Copy CRC E2E4D22C
     Track not present in AccurateRip database
     Copy OK
Track  3
     Filename F:\My Documents\My Music\Albums (Complete)\03. Galley Beggar - Adam And Eve.wav
     Pre-gap length  0:00:02.00
     Peak level 98.8 %
     Extraction speed 5.9 X
     Track quality 100.0 %
     Test CRC 7AE27FC4
     Copy CRC 7AE27FC4
     Track not present in AccurateRip database
     Copy OK
Track  4
     Filename F:\My Documents\My Music\Albums (Complete)\04. Sweet Billy Pilgrim - Coloma Blues.wav
     Pre-gap length  0:00:02.00
     Peak level 98.0 %
     Extraction speed 6.4 X
     Track quality 100.0 %
     Test CRC DD3478C5
     Copy CRC DD3478C5
     Track not present in AccurateRip database
     Copy OK
Track  5
     Filename F:\My Documents\My Music\Albums (Complete)\05. Karnataka - Because Of You.wav
     Pre-gap length  0:00:02.00
     Peak level 98.8 %
     Extraction speed 6.8 X
     Track quality 100.0 %
     Test CRC 14CED0DE
     Copy CRC 14CED0DE
     Track not present in AccurateRip database
     Copy OK
Track  6
     Filename F:\My Documents\My Music\Albums (Complete)\06. Native Construct - Mute.wav
     Pre-gap length  0:00:02.00
     Peak level 98.8 %
     Extraction speed 5.8 X
     Track quality 99.9 %
     Test CRC 3AFD6CD2
     Copy CRC 3AFD6CD2
     Track not present in AccurateRip database
     Copy OK
Track  7
     Filename F:\My Documents\My Music\Albums (Complete)\07. Metallic Taste Of Blood - Ipsissimus.wav
     Pre-gap length  0:00:02.00
     Peak level 99.1 %
     Extraction speed 7.7 X
     Track quality 100.0 %
     Test CRC BFADDF1C
     Copy CRC BFADDF1C
     Track not present in AccurateRip database
     Copy OK
Track  8
     Filename F:\My Documents\My Music\Albums (Complete)\08. Magic Pie - According To Plan.wav
     Pre-gap length  0:00:02.00
     Peak level 98.8 %
     Extraction speed 6.5 X
     Track quality 99.9 %
     Test CRC 89D4E244
     Copy CRC 89D4E244
     Track not present in AccurateRip database
     Copy OK
Track  9
     Filename F:\My Documents\My Music\Albums (Complete)\09. Arcane - Keeping Stone, Sound On Fire.wav
     Pre-gap length  0:00:02.00
     Peak level 98.2 %
     Extraction speed 9.0 X
     Track quality 100.0 %
     Test CRC 57F738BF
     Copy CRC 57F738BF
     Track not present in AccurateRip database
     Copy OK
Track 10
     Filename F:\My Documents\My Music\Albums (Complete)\10. Lorenzo Feliciati - Noir Alley Verdigris.wav
     Pre-gap length  0:00:02.00
     Peak level 100.0 %
     Extraction speed 6.6 X
     Track quality 99.9 %
     Test CRC 7A9F44D8
     Copy CRC 7A9F44D8
     Track not present in AccurateRip database
     Copy OK
None of the tracks are present in the AccurateRip database
No errors occurred
End of status report
==== Log checksum BA06E5DB29F3F5C82D184E3277C011CBE7E9CFBEBCBF33C031E45D2B2C7CEE02 ====

Код: Выделить всё
REM GENRE "Progressive Rock"
REM DATE 2015
REM DISCID 7E0DAF0A
REM COMMENT "ExactAudioCopy v1.0b3"
PERFORMER "Various Artists"
TITLE "Prog P34: The Chamber Of 32 Doors"
FILE "01. Ozric Tentacles - Changa Masala.wav" WAVE
  TRACK 01 AUDIO
    TITLE "Changa Masala"
    PERFORMER "Ozric Tentacles"
    INDEX 01 00:00:00
  TRACK 02 AUDIO
    TITLE "Sure Of The Dark"
    PERFORMER "David Cross and Robert Fripp"
    INDEX 00 06:03:11
FILE "02. David Cross and Robert Fripp - Sure Of The Dark.wav" WAVE
    INDEX 01 00:00:00
  TRACK 03 AUDIO
    TITLE "Adam And Eve"
    PERFORMER "Galley Beggar"
    INDEX 00 03:53:58
FILE "03. Galley Beggar - Adam And Eve.wav" WAVE
    INDEX 01 00:00:00
  TRACK 04 AUDIO
    TITLE "Coloma Blues"
    PERFORMER "Sweet Billy Pilgrim"
    INDEX 00 05:35:08
FILE "04. Sweet Billy Pilgrim - Coloma Blues.wav" WAVE
    INDEX 01 00:00:00
  TRACK 05 AUDIO
    TITLE "Because Of You"
    PERFORMER "Karnataka"
    INDEX 00 05:18:07
FILE "05. Karnataka - Because Of You.wav" WAVE
    INDEX 01 00:00:00
  TRACK 06 AUDIO
    TITLE "Mute"
    PERFORMER "Native Construct"
    INDEX 00 04:53:31
FILE "06. Native Construct - Mute.wav" WAVE
    INDEX 01 00:00:00
  TRACK 07 AUDIO
    TITLE "Ipsissimus"
    PERFORMER "Metallic Taste Of Blood"
    INDEX 00 06:21:36
FILE "07. Metallic Taste Of Blood - Ipsissimus.wav" WAVE
    INDEX 01 00:00:00
  TRACK 08 AUDIO
    TITLE "According To Plan"
    PERFORMER "Magic Pie"
    INDEX 00 04:52:18
FILE "08. Magic Pie - According To Plan.wav" WAVE
    INDEX 01 00:00:00
  TRACK 09 AUDIO
    TITLE "Keeping Stone, Sound On Fire"
    PERFORMER "Arcane"
    INDEX 00 06:31:53
FILE "09. Arcane - Keeping Stone, Sound On Fire.wav" WAVE
    INDEX 01 00:00:00
  TRACK 10 AUDIO
    TITLE "Noir Alley Verdigris"
    PERFORMER "Lorenzo Feliciati"
    INDEX 00 09:22:32
FILE "10. Lorenzo Feliciati - Noir Alley Verdigris.wav" WAVE
    INDEX 01 00:00:00



 
Не забывайте говорить Спасибо. Не уходите с раздачи!   
Торрент: Зарегистрирован [29 июн 2018, 09:47] Скачать торрент
Скачать торрент
[ Размер 16.78 КБ / Просмотров 2 ]
Статус:
Проверен
 
.torrent скачан: 0 раз
Хэш: d55b6ae734956afb53b05e4aed06bb679d54146c
Размер: 389.91 МБ (408 849 828 байт)
Стать Автором раздачи
 
 
Раздал: 0 байт
Скачал: 0 байт
Ратио: Inf.
Сообщения: 487468
Зарегистрирован: 17 апр 2014, 13:57


  • Похожие торренты
    Ответы
    Просмотры
    Последнее сообщение

Вернуться в Сборники зарубежного рока (lossless)

Ресурс не предоставляет электронные версии произведений, а занимается лишь коллекционированием и каталогизацией ссылок, присылаемых и публикуемых на форуме нашими читателями. Если вы являетесь правообладателем какого-либо представленного материала и не желаете чтобы ссылка на него находилась в нашем каталоге, свяжитесь с нами и мы незамедлительно удалим её. Файлы для обмена на трекере предоставлены пользователями сайта, и администрация не несёт ответственности за их содержание. Просьба не заливать файлы, защищенные авторскими правами, а также файлы нелегального содержания!
cron