(Progressive Rock) [CD] VA - Prog - P46: Ocean Song - 2016 FLAC (tracks+.cue), lossless

 
 Статистика раздачи 
Размер: 452.43 МБ   |  Зарегистрирован: 29 июн 2018, 08:34   |   .torrent скачан: 0 раз
Сидеров: 1  [ 0 байт/сек ]     Личеров: 0  [ 0 байт/сек ]  
  

(Progressive Rock) [CD] VA - Prog - P46: Ocean Song - 2016 FLAC (tracks+.cue), lossless

Сообщение Nakazhu » 29 июн 2018, 11:39


Prog - P46: Ocean Song




• Жанр: Progressive Rock
• Носитель: CD
• Страна-производитель диска (релиза): UK
• Год издания: 2016
• Издатель (лейбл) Prog Magazine, TeamRock
• Номер по каталогу: ROP68CD-08-16
• Аудиокодек: FLAC (*.flac)
• Тип рипа: tracks+.cue
• Продолжительность: 01:09:51
• Источник (релизер): Summerisle ®
• Наличие сканов: да

01. Circuline - Forbidden Planet (00:07:09)
02. Huis - Man On The Hill (00:07:57)
03. Lifesigns - Voice In My Head (Live) (00:05:41)
04. Gandalf's Fist - Victims Of The Light (00:09:14)
05. Chat Noir - Fundamental Mind (00:06:01)
06. Bellerophon - Autumn Song (00:06:22)
07. Ghost Medicine - Broken Corridor (00:05:03)
08. Ben Craven - Revenge Of Dr. Komodo (00:02:36)
09. Lyrian - Flight From The Enchanter (00:09:39)
10. Iron Butterfly - In-A-Gadda-Da-Vida (00:10:06)

Код: Выделить всё
-----------------------
DON'T MODIFY THIS FILE
-----------------------
PERFORMER: auCDtect Task Manager, ver. 1.5.1RC3 build 1.5.1.4
Copyright (c) 2008-2010 y-soft. All rights reserved
[url=http://y-soft.org]http://y-soft.org[/url]
ANALYZER: auCDtect: CD records authenticity detector, version 0.8.2
Copyright (c) 2004 Oleg Berngardt. All rights reserved.
Copyright (c) 2004 Alexander Djourik. All rights reserved.
FILE: 10. Iron Butterfly - In-A-Gadda-Da-Vida.flac
  Size: 63515451 Hash: 71A316153026B881239EB68699DF090D Accuracy: -m0
  Conclusion: CDDA 100%
  Signature: 1D92FCD998A27E2E8147B35D0AE7F0B55B28FBA9
FILE: 09. Lyrian - Flight From The Enchanter.flac
  Size: 63647614 Hash: 61C45024DCDBCD4FE9AA36704D643D22 Accuracy: -m0
  Conclusion: CDDA 100%
  Signature: CE5C906BD16BCC2D210D890FAE5C549F6E9C4086
FILE: 08. Ben Craven - Revenge Of Dr. Komodo.flac
  Size: 20250795 Hash: 1EB058E7B6E39115CD2F1820E4E2F7BA Accuracy: -m0
  Conclusion: MPEG 93%
  Signature: 13574D86ACA41152A532BF1913681143EABFAB1B
FILE: 07. Ghost Medicine - Broken Corridor.flac
  Size: 41857771 Hash: 94F286B5060043C165C9F73DFFF2FC17 Accuracy: -m0
  Conclusion: CDDA 99%
  Signature: 64323CF93331ED5E6FFA0095251B7B399BEDF5DB
FILE: 06. Bellerophon - Autumn Song.flac
  Size: 41492308 Hash: 02F9976F9D18A21E20050BE4EB46BFB6 Accuracy: -m0
  Conclusion: CDDA 100%
  Signature: F95220BB4C0A22D556CFB53744507BD3FCA7B0E5
FILE: 05. Chat Noir - Fundamental Mind.flac
  Size: 33847257 Hash: 3B02E57272B7BEDF263CF1F5492E8BA6 Accuracy: -m0
  Conclusion: CDDA 100%
  Signature: 48A191AC8663D55C19E52F3C4E64ACCE911C6B27
FILE: 04. Gandalf's Fist - Victims Of The Light.flac
  Size: 64301355 Hash: 5B5792BF26967CB9CA32B7A78D3016DD Accuracy: -m0
  Conclusion: CDDA 99%
  Signature: E57CBA1F7D77D766E2A88DC354C796C034BB8406
FILE: 03. Lifesigns - Voice In My Head (Live).flac
  Size: 39499911 Hash: 0718B51C0504A53D749965321DD72217 Accuracy: -m0
  Conclusion: CDDA 100%
  Signature: C16144FEE6AF881F4FCE1A3257A99F0AFDE2945C
FILE: 02. Huis - Man On The Hill.flac
  Size: 51818645 Hash: E4B4E40E2AFD2E0910100FEBEFE43900 Accuracy: -m0
  Conclusion: CDDA 100%
  Signature: 0D152863F334D148AD4F99C83B69586067331840
FILE: 01. Circuline - Forbidden Planet.flac
  Size: 51518168 Hash: 3DE5281BCE26DBC0110145FC290F3626 Accuracy: -m0
  Conclusion: CDDA 100%
  Signature: FAE4EA2ED5C6532CF9196650762FE34A25D0E30A

Код: Выделить всё
Exact Audio Copy V1.1 from 23. June 2015
EAC extraction logfile from 18. July 2016, 9:40
Various Artists / Prog - P46: Ocean Song
Used drive  : ATAPI   iHAS124   W   Adapter: 1  ID: 0
Read mode               : Secure
Utilize accurate stream : Yes
Defeat audio cache      : Yes
Make use of C2 pointers : No
Read offset correction                      : 48
Overread into Lead-In and Lead-Out          : No
Fill up missing offset samples with silence : Yes
Delete leading and trailing silent blocks   : No
Null samples used in CRC calculations       : Yes
Used interface                              : Native Win32 interface for Win NT & 2000
Gap handling                                : Appended to previous track
Used output format              : User Defined Encoder
Selected bitrate                : 896 kBit/s
Quality                         : High
Add ID3 tag                     : No
Command line compressor         : C:\Program Files (x86)\FLAC\win64\flac.exe
Additional command line options : -8 -V -T "artist=%artist%" -T "albumartist=%albumartist%" -T "album=%albumtitle%" -T "title=%title%" -T "year=%year%" -T "tracknumber=%tracknr2%" -T "genre=%genre%" %source% -o %dest%
TOC of the extracted CD
     Track |   Start  |  Length  | Start sector | End sector
    ---------------------------------------------------------
        1  |  0:00.00 |  7:09.09 |         0    |    32183
        2  |  7:09.09 |  7:57.48 |     32184    |    68006
        3  | 15:06.57 |  5:41.52 |     68007    |    93633
        4  | 20:48.34 |  9:14.31 |     93634    |   135214
        5  | 30:02.65 |  6:01.09 |    135215    |   162298
        6  | 36:03.74 |  6:22.04 |    162299    |   190952
        7  | 42:26.03 |  5:03.10 |    190953    |   213687
        8  | 47:29.13 |  2:36.47 |    213688    |   225434
        9  | 50:05.60 |  9:39.10 |    225435    |   268869
       10  | 59:44.70 | 10:06.59 |    268870    |   314378
Track  1
     Filename F:\My Documents\My Music\Albums (Complete)\01. Circuline - Forbidden Planet.wav
     Pre-gap length  0:00:02.00
     Peak level 97.8 %
     Extraction speed 4.9 X
     Track quality 100.0 %
     Test CRC 58617C21
     Copy CRC 58617C21
     Track not present in AccurateRip database
     Copy OK
Track  2
     Filename F:\My Documents\My Music\Albums (Complete)\02. Huis - Man On The Hill.wav
     Pre-gap length  0:00:02.00
     Peak level 93.9 %
     Extraction speed 5.8 X
     Track quality 100.0 %
     Test CRC 944A70F9
     Copy CRC 944A70F9
     Track not present in AccurateRip database
     Copy OK
Track  3
     Filename F:\My Documents\My Music\Albums (Complete)\03. Lifesigns - Voice In My Head (Live).wav
     Pre-gap length  0:00:02.00
     Peak level 98.8 %
     Extraction speed 6.2 X
     Track quality 100.0 %
     Test CRC 3E6DA4DE
     Copy CRC 3E6DA4DE
     Track not present in AccurateRip database
     Copy OK
Track  4
     Filename F:\My Documents\My Music\Albums (Complete)\04. Gandalf's Fist - Victims Of The Light.wav
     Pre-gap length  0:00:02.00
     Peak level 98.8 %
     Extraction speed 5.9 X
     Track quality 99.9 %
     Test CRC 41C4D134
     Copy CRC 41C4D134
     Track not present in AccurateRip database
     Copy OK
Track  5
     Filename F:\My Documents\My Music\Albums (Complete)\05. Chat Noir - Fundamental Mind.wav
     Pre-gap length  0:00:02.00
     Peak level 92.5 %
     Extraction speed 7.4 X
     Track quality 100.0 %
     Test CRC 013231AE
     Copy CRC 013231AE
     Track not present in AccurateRip database
     Copy OK
Track  6
     Filename F:\My Documents\My Music\Albums (Complete)\06. Bellerophon - Autumn Song.wav
     Pre-gap length  0:00:02.00
     Peak level 100.0 %
     Extraction speed 7.8 X
     Track quality 100.0 %
     Test CRC 803D7257
     Copy CRC 803D7257
     Track not present in AccurateRip database
     Copy OK
Track  7
     Filename F:\My Documents\My Music\Albums (Complete)\07. Ghost Medicine - Broken Corridor.wav
     Pre-gap length  0:00:02.00
     Peak level 99.9 %
     Extraction speed 5.9 X
     Track quality 99.9 %
     Test CRC BF388C2B
     Copy CRC BF388C2B
     Track not present in AccurateRip database
     Copy OK
Track  8
     Filename F:\My Documents\My Music\Albums (Complete)\08. Ben Craven - Revenge Of Dr. Komodo.wav
     Pre-gap length  0:00:02.00
     Peak level 98.8 %
     Extraction speed 7.4 X
     Track quality 100.0 %
     Test CRC AE6EDC6C
     Copy CRC AE6EDC6C
     Track not present in AccurateRip database
     Copy OK
Track  9
     Filename F:\My Documents\My Music\Albums (Complete)\09. Lyrian - Flight From The Enchanter.wav
     Pre-gap length  0:00:02.00
     Peak level 98.8 %
     Extraction speed 8.9 X
     Track quality 100.0 %
     Test CRC C137A3FB
     Copy CRC C137A3FB
     Track not present in AccurateRip database
     Copy OK
Track 10
     Filename F:\My Documents\My Music\Albums (Complete)\10. Iron Butterfly - In-A-Gadda-Da-Vida.wav
     Pre-gap length  0:00:02.00
     Peak level 93.3 %
     Extraction speed 9.1 X
     Track quality 100.0 %
     Test CRC 201CE013
     Copy CRC 201CE013
     Track not present in AccurateRip database
     Copy OK
None of the tracks are present in the AccurateRip database
No errors occurred
End of status report
---- CUETools DB Plugin V2.1.6
[CTDB TOCID: gPN1YkSx4sbT7gELJF.UXrfKaFM-] found
Submit result: gPN1YkSx4sbT7gELJF.UXrfKaFM- has been confirmed
Track | CTDB Status
  1   | (1/1) Accurately ripped
  2   | (1/1) Accurately ripped
  3   | (1/1) Accurately ripped
  4   | (1/1) Accurately ripped
  5   | (1/1) Accurately ripped
  6   | (1/1) Accurately ripped
  7   | (1/1) Accurately ripped
  8   | (1/1) Accurately ripped
  9   | (1/1) Accurately ripped
 10   | (1/1) Accurately ripped
==== Log checksum B9D3ADAC060697E1F0E9B9B58D109C28B955B873BF3BF2EB3EED80092D1C97C0 ====

Код: Выделить всё
REM GENRE "Progressive Rock"
REM DATE 2016
REM DISCID 81105F0A
REM COMMENT "ExactAudioCopy v1.1"
PERFORMER "Various Artists"
TITLE "Prog - P46: Ocean Song"
FILE "01. Circuline - Forbidden Planet.wav" WAVE
  TRACK 01 AUDIO
    TITLE "Forbidden Planet"
    PERFORMER "Circuline"
    INDEX 01 00:00:00
  TRACK 02 AUDIO
    TITLE "Man On The Hill"
    PERFORMER "Huis"
    INDEX 00 07:07:09
FILE "02. Huis - Man On The Hill.wav" WAVE
    INDEX 01 00:00:00
  TRACK 03 AUDIO
    TITLE "Voice In My Head (Live)"
    PERFORMER "Lifesigns"
    INDEX 00 07:55:48
FILE "03. Lifesigns - Voice In My Head (Live).wav" WAVE
    INDEX 01 00:00:00
  TRACK 04 AUDIO
    TITLE "Victims Of The Light"
    PERFORMER "Gandalf's Fist"
    INDEX 00 05:39:52
FILE "04. Gandalf's Fist - Victims Of The Light.wav" WAVE
    INDEX 01 00:00:00
  TRACK 05 AUDIO
    TITLE "Fundamental Mind"
    PERFORMER "Chat Noir"
    INDEX 00 09:12:31
FILE "05. Chat Noir - Fundamental Mind.wav" WAVE
    INDEX 01 00:00:00
  TRACK 06 AUDIO
    TITLE "Autumn Song"
    PERFORMER "Bellerophon"
    INDEX 00 05:59:09
FILE "06. Bellerophon - Autumn Song.wav" WAVE
    INDEX 01 00:00:00
  TRACK 07 AUDIO
    TITLE "Broken Corridor"
    PERFORMER "Ghost Medicine"
    INDEX 00 06:20:04
FILE "07. Ghost Medicine - Broken Corridor.wav" WAVE
    INDEX 01 00:00:00
  TRACK 08 AUDIO
    TITLE "Revenge Of Dr. Komodo"
    PERFORMER "Ben Craven"
    INDEX 00 05:01:10
FILE "08. Ben Craven - Revenge Of Dr. Komodo.wav" WAVE
    INDEX 01 00:00:00
  TRACK 09 AUDIO
    TITLE "Flight From The Enchanter"
    PERFORMER "Lyrian"
    INDEX 00 02:34:47
FILE "09. Lyrian - Flight From The Enchanter.wav" WAVE
    INDEX 01 00:00:00
  TRACK 10 AUDIO
    TITLE "In-A-Gadda-Da-Vida"
    PERFORMER "Iron Butterfly"
    INDEX 00 09:37:10
FILE "10. Iron Butterfly - In-A-Gadda-Da-Vida.wav" WAVE
    INDEX 01 00:00:00



 
Не забывайте говорить Спасибо. Не уходите с раздачи!   
Торрент: Зарегистрирован [29 июн 2018, 08:34] Скачать торрент
Скачать торрент
[ Размер 19.14 КБ / Просмотров 4 ]
Статус:
Проверен
 
.torrent скачан: 0 раз
Хэш: 6517e82bc4174fa374e39512a28192915adc7e01
Размер: 452.43 МБ (474 404 494 байт)
Стать Автором раздачи
 
 
Раздал: 0 байт
Скачал: 0 байт
Ратио: Inf.
Сообщения: 487468
Зарегистрирован: 17 апр 2014, 13:57


  • Похожие торренты
    Ответы
    Просмотры
    Последнее сообщение

Вернуться в Сборники зарубежного рока (lossless)

Ресурс не предоставляет электронные версии произведений, а занимается лишь коллекционированием и каталогизацией ссылок, присылаемых и публикуемых на форуме нашими читателями. Если вы являетесь правообладателем какого-либо представленного материала и не желаете чтобы ссылка на него находилась в нашем каталоге, свяжитесь с нами и мы незамедлительно удалим её. Файлы для обмена на трекере предоставлены пользователями сайта, и администрация не несёт ответственности за их содержание. Просьба не заливать файлы, защищенные авторскими правами, а также файлы нелегального содержания!
cron