(Alternative Metal / Industrial Metal / Nu-Metal) [CDM] Acumen Nation - If You Were / Bleed For You - 1998, FLAC (tracks+.cue), lossless

 
 Статистика раздачи 
Размер: 311.95 МБ   |  Зарегистрирован: 29 июн 2018, 07:31   |   .torrent скачан: 0 раз
Сидеров: 1  [ 0 байт/сек ]     Личеров: 0  [ 0 байт/сек ]  
  

(Alternative Metal / Industrial Metal / Nu-Metal) [CDM] Acumen Nation - If You Were / Bleed For You - 1998, FLAC (tracks+.cue), lossless

Сообщение Nakazhu » 29 июн 2018, 10:38

Acumen Nation / If You Were / Bleed For You
Жанр: Alternative Metal / Industrial Metal / Nu-Metal
Носитель: CDM
Страна-производитель диска (релиза): US
Год издания: 1998
Издатель (лейбл): Conscience Records
Номер по каталогу: CON0007
Страна исполнителя (группы): US
Аудиокодек: FLAC (*.flac)
Тип рипа: tracks+.cue
Битрейт аудио: lossless
Продолжительность: 00:42:40
Источник (релизер): Usenet
Наличие сканов в содержимом раздачи: нет
Треклист:
01. If You Were (Radio Edit)
02. Bleed For You (Radio Edit)
03. If You Were (Acucrack Remix)
04. Bleed For You (Verbal Mix)
05. Ventilator (Verbal Mix)
06. Cowboy God (Previously Unreleased)
07. Gun Lover 1998 (Acucrack Remix)
08. If You Weren't So Goddamn Stupid...
Код: Выделить всё
Exact Audio Copy V1.3 from 2. September 2016
EAC extraction logfile from 10. December 2016, 16:48
Acumen Nation / If You Were / Bleed for You
Used drive  : hp      DVDRW  DU8A6SH   Adapter: 1  ID: 0
Read mode               : Secure
Utilize accurate stream : Yes
Defeat audio cache      : Yes
Make use of C2 pointers : No
Read offset correction                      : 6
Overread into Lead-In and Lead-Out          : No
Fill up missing offset samples with silence : Yes
Delete leading and trailing silent blocks   : No
Null samples used in CRC calculations       : Yes
Used interface                              : Native Win32 interface for Win NT & 2000
Gap handling                                : Appended to previous track
Used output format              : User Defined Encoder
Selected bitrate                : 128 kBit/s
Quality                         : High
Add ID3 tag                     : No
Command line compressor         : C:\Program Files (x86)\Exact Audio Copy\Flac\flac.exe
Additional command line options :  -8 -e -V -T "ARTIST=%artist%" -T "TITLE=%title%" -T "ALBUM=%albumtitle%" -T "DATE=%year%" -T "TRACKNUMBER=%tracknr%" -T "GENRE=%genre%" -T "PERFORMER=%albuminterpret%" -T "COMPOSER=%composer%" %haslyrics%--tag-from-file=LYRICS="%lyricsfile%"%haslyrics% -T "ALBUMARTIST=%albumartist%" -T "DISCNUMBER=%cdnumber%" -T "TOTALDISCS=%totalcds%" -T "TOTALTRACKS=%numtracks%" -T "COMMENT=%comment%" %source% -o %dest%
TOC of the extracted CD
     Track |   Start  |  Length  | Start sector | End sector
    ---------------------------------------------------------
        1  |  0:00.00 |  3:21.52 |         0    |    15126
        2  |  3:21.52 |  4:45.45 |     15127    |    36546
        3  |  8:07.22 |  7:18.48 |     36547    |    69444
        4  | 15:25.70 |  6:17.07 |     69445    |    97726
        5  | 21:43.02 |  6:00.70 |     97727    |   124796
        6  | 27:43.72 |  4:49.63 |    124797    |   146534
        7  | 32:33.60 |  6:03.25 |    146535    |   173784
        8  | 38:37.10 |  4:03.52 |    173785    |   192061
Track  1
     Filename C:\Users\patry\Downloads\Torrents\AAA Uploads\Acumen - If You Were, Bleed for You (1998) [FLAC] {CON0007}\01 If You Were (radio edit).wav
     Pre-gap length  0:00:02.00
     Peak level 100.0 %
     Extraction speed 1.0 X
     Track quality 100.0 %
     Test CRC 400BA1F3
     Copy CRC 400BA1F3
     Accurately ripped (confidence 4)  [8FA40149]  (AR v2)
     Copy OK
Track  2
     Filename C:\Users\patry\Downloads\Torrents\AAA Uploads\Acumen - If You Were, Bleed for You (1998) [FLAC] {CON0007}\02 Bleed for You (radio edit).wav
     Pre-gap length  0:00:02.13
     Peak level 100.0 %
     Extraction speed 1.2 X
     Track quality 100.0 %
     Test CRC B7A2076D
     Copy CRC B7A2076D
     Accurately ripped (confidence 4)  [FD5D49A5]  (AR v2)
     Copy OK
Track  3
     Filename C:\Users\patry\Downloads\Torrents\AAA Uploads\Acumen - If You Were, Bleed for You (1998) [FLAC] {CON0007}\03 If You Were (Acucrack remix).wav
     Pre-gap length  0:00:01.93
     Peak level 100.0 %
     Extraction speed 1.4 X
     Track quality 100.0 %
     Test CRC 35C7A5D8
     Copy CRC 35C7A5D8
     Accurately ripped (confidence 4)  [D4D20678]  (AR v2)
     Copy OK
Track  4
     Filename C:\Users\patry\Downloads\Torrents\AAA Uploads\Acumen - If You Were, Bleed for You (1998) [FLAC] {CON0007}\04 Bleed for You (Verbal mix).wav
     Pre-gap length  0:00:02.20
     Peak level 100.0 %
     Extraction speed 1.6 X
     Track quality 100.0 %
     Test CRC 77DD7F93
     Copy CRC 77DD7F93
     Accurately ripped (confidence 4)  [5D8A76C1]  (AR v2)
     Copy OK
Track  5
     Filename C:\Users\patry\Downloads\Torrents\AAA Uploads\Acumen - If You Were, Bleed for You (1998) [FLAC] {CON0007}\05 Ventilator (Verbal mix).wav
     Pre-gap length  0:00:01.36
     Peak level 100.0 %
     Extraction speed 1.7 X
     Track quality 100.0 %
     Test CRC 8EBB147F
     Copy CRC 8EBB147F
     Accurately ripped (confidence 4)  [6A6A29CC]  (AR v2)
     Copy OK
Track  6
     Filename C:\Users\patry\Downloads\Torrents\AAA Uploads\Acumen - If You Were, Bleed for You (1998) [FLAC] {CON0007}\06 Cowboy God.wav
     Pre-gap length  0:00:01.42
     Peak level 100.0 %
     Extraction speed 1.6 X
     Track quality 99.9 %
     Test CRC 7128E6C0
     Copy CRC 7128E6C0
     Accurately ripped (confidence 4)  [BD283528]  (AR v2)
     Copy OK
Track  7
     Filename C:\Users\patry\Downloads\Torrents\AAA Uploads\Acumen - If You Were, Bleed for You (1998) [FLAC] {CON0007}\07 Gun Lover 1998 (Acucrack remix).wav
     Pre-gap length  0:00:01.24
     Peak level 100.0 %
     Extraction speed 2.0 X
     Track quality 100.0 %
     Test CRC ACAC4893
     Copy CRC ACAC4893
     Accurately ripped (confidence 4)  [6AE6AB06]  (AR v2)
     Copy OK
Track  8
     Filename C:\Users\patry\Downloads\Torrents\AAA Uploads\Acumen - If You Were, Bleed for You (1998) [FLAC] {CON0007}\08 If You Weren't So Goddamn Stupid....wav
     Pre-gap length  0:00:01.73
     Peak level 100.0 %
     Extraction speed 1.7 X
     Track quality 99.9 %
     Test CRC 5834C0B0
     Copy CRC 5834C0B0
     Accurately ripped (confidence 4)  [507A5FF0]  (AR v2)
     Copy OK
All tracks accurately ripped
No errors occurred
End of status report
---- CUETools DB Plugin V2.1.6
[CTDB TOCID: 2ixRdTz4NZSYlT1Xnj_8H2zmQfQ-] found
Submit result: 2ixRdTz4NZSYlT1Xnj_8H2zmQfQ- has been confirmed
Track | CTDB Status
  1   | (7/7) Accurately ripped
  2   | (7/7) Accurately ripped
  3   | (7/7) Accurately ripped
  4   | (7/7) Accurately ripped
  5   | (7/7) Accurately ripped
  6   | (7/7) Accurately ripped
  7   | (7/7) Accurately ripped
  8   | (7/7) Accurately ripped
==== Log checksum 2D47B25B365D63403EBEE9A66599C850CEC9D164DB9782A2BB12D57CB55FF2B5 ====
Код: Выделить всё
REM DATE 1998
REM DISCID 6C0A0008
REM COMMENT "ExactAudioCopy v1.3"
PERFORMER "Acumen Nation"
TITLE "If You Were / Bleed for You"
REM COMPOSER ""
FILE "01 If You Were (radio edit).wav" WAVE
  TRACK 01 AUDIO
    TITLE "If You Were (radio edit)"
    PERFORMER "Acumen Nation"
    REM COMPOSER ""
    INDEX 01 00:00:00
  TRACK 02 AUDIO
    TITLE "Bleed for You (radio edit)"
    PERFORMER "Acumen Nation"
    REM COMPOSER ""
    INDEX 00 03:19:42
FILE "02 Bleed for You (radio edit).wav" WAVE
    INDEX 01 00:00:00
  TRACK 03 AUDIO
    TITLE "If You Were (Acucrack remix)"
    PERFORMER "Acumen Nation"
    REM COMPOSER ""
    INDEX 00 04:43:50
FILE "03 If You Were (Acucrack remix).wav" WAVE
    INDEX 01 00:00:00
  TRACK 04 AUDIO
    TITLE "Bleed for You (Verbal mix)"
    PERFORMER "Acumen Nation"
    REM COMPOSER ""
    INDEX 00 07:16:33
FILE "04 Bleed for You (Verbal mix).wav" WAVE
    INDEX 01 00:00:00
  TRACK 05 AUDIO
    TITLE "Ventilator (Verbal mix)"
    PERFORMER "Acumen Nation"
    REM COMPOSER ""
    INDEX 00 06:15:55
FILE "05 Ventilator (Verbal mix).wav" WAVE
    INDEX 01 00:00:00
  TRACK 06 AUDIO
    TITLE "Cowboy God"
    PERFORMER "Acumen Nation"
    REM COMPOSER ""
    INDEX 00 05:59:38
FILE "06 Cowboy God.wav" WAVE
    INDEX 01 00:00:00
  TRACK 07 AUDIO
    TITLE "Gun Lover 1998 (Acucrack remix)"
    PERFORMER "Acumen Nation"
    REM COMPOSER ""
    INDEX 00 04:48:45
FILE "07 Gun Lover 1998 (Acucrack remix).wav" WAVE
    INDEX 01 00:00:00
  TRACK 08 AUDIO
    TITLE "If You Weren't So Goddamn Stupid..."
    PERFORMER "Acumen Nation"
    REM COMPOSER ""
    INDEX 00 06:01:45
FILE "08 If You Weren't So Goddamn Stupid....wav" WAVE
    INDEX 01 00:00:00
 
Не забывайте говорить Спасибо. Не уходите с раздачи!   
Торрент: Зарегистрирован [29 июн 2018, 07:31] Скачать торрент
Скачать торрент
[ Размер 13.37 КБ / Просмотров 1 ]
Статус:
Проверен
 
.torrent скачан: 0 раз
Хэш: f8e4b555e5afd65e7e9aa6b75e90f42d0c8985a4
Размер: 311.95 МБ (327 106 014 байт)
Стать Автором раздачи
 
 
Раздал: 0 байт
Скачал: 0 байт
Ратио: Inf.
Сообщения: 487468
Зарегистрирован: 17 апр 2014, 13:57


  • Похожие торренты
    Ответы
    Просмотры
    Последнее сообщение

Вернуться в Alternative & Nu-metal (lossless)

Ресурс не предоставляет электронные версии произведений, а занимается лишь коллекционированием и каталогизацией ссылок, присылаемых и публикуемых на форуме нашими читателями. Если вы являетесь правообладателем какого-либо представленного материала и не желаете чтобы ссылка на него находилась в нашем каталоге, свяжитесь с нами и мы незамедлительно удалим её. Файлы для обмена на трекере предоставлены пользователями сайта, и администрация не несёт ответственности за их содержание. Просьба не заливать файлы, защищенные авторскими правами, а также файлы нелегального содержания!
cron