(Classical opera) Handel - Rodelinda, Regina de'Langobardi / Гендель - Роделинда [3CD's] (Barbara Schlick, Kai Wessel, Christoph Pregardien / La Stagione Frankfurt, Michael Schneider) - 1991, FLAC (image+.cue) lossless

 
 Статистика раздачи 
Размер: 936.61 МБ   |  Зарегистрирован: 15 дек 2013, 15:42   |   .torrent скачан: 0 раз
Сидеров: 1  [ 0 байт/сек ]     Личеров: 0  [ 0 байт/сек ]  
  

(Classical opera) Handel - Rodelinda, Regina de'Langobardi / Гендель - Роделинда [3CD's] (Barbara Schlick, Kai Wessel, Christoph Pregardien / La Stagione Frankfurt, Michael Schneider) - 1991, FLAC (image+.cue) lossless

Сообщение Nakazhu » 28 июн 2018, 21:28

Handel - Rodelinda, Regina de'Langobardi / Гендель - Роделинда
Жанр: Classical opera
Страна-производитель диска: Made in Germany
Год издания диска: 1991
Издатель (лейбл): Deutsche Harmonia Mundi / BMG Entertainment
Номер по каталогу: RD77192
Дата записи: 1990
Аудиокодек: FLAC
Тип рипа: image+.cue
Битрейт аудио: lossless
Продолжительность: 65'12 + 59'52 + 52'31 / 177'36'' / 02:57:36
Источник: релизер
сайт-источник/ник/другое: makdelart, подарок; Caterina Sforza - упоительная работа с cue
Наличие сканов в содержимом раздачи: да, полный буклет, 115 страниц
Код: Выделить всё
1. Ouverture
2. Menuet
3. Scena 1: Ho Perduto Il Caro Sposo
4. Scena 1: Regina!
5. Scena 1: L'empio Rigor Del Fato
6. Scena 2: Duca, Vedesti Mai
7. Scena 3: E Tanto Da Che Sei Re
8. Scena 3: Io Gia T'amai, Ritrosa
9. Scena 4: E Tu Dice D'amarmi?
10. Scena 4: Lo Faro, Diro Spietato
11. Scena 5: Eduige, T'inganni
12. Scena 5: Di Cupido Impiego I Vanni
13. Scena 6: Pompe Vane Di Morte!
14. Scena 6: Ma Giunge Unulfo
15. Scena 7: Ombre, Piante, Urne Funeste!
16. Scena 8: Baci Inutili E Vani
17. Scena 8: Morrai Si, L'empia
18. Scena 9: E Ben, Duca, Poss'io
19. Scena 9: Se Per Te Giungo A Godere
20. Scena 10: Unulfo, Oh Dio!
21. Scena 10: Sono I Colpi Della Sorte
22. Scena 11: Si, L'infida Consorte
23. Scena 11: Confusa Si Miri
Код: Выделить всё
1. Scena 1: Gia Perdesti, Oh Signora
2. Scena 2: Rodelinda, Si Mesta Ritorni
3. Scena 2: De'miei Scherni
4. Scena 3: Rodelinda, E Pur Ver?
5. Scena 3: Spietati, Io Vi Giurai
6. Scena 4: Unulfo, Garibaldo
7. Scena 4: Prigioniera Ho L'alma
8. Scena 4: Massime Cosi Indegne
9. Scena 4: Tirannia Gli Diede Il Regno
10. Scena 4: Si, Si Fellon, T'intendo
11. Scena 4: Fra Tempeste Funeste
12. Scena 5: Con Rauco Mormorio
13. Scena 5: Ah, No; Che Non M'inganna
14. Scena 5: Scacciata Dal Suo Nido
15. Scena 6: Vive Il Mio Sposo?
16. Scena 6: Ritorna, Oh Caro E Dolce
17. Scena 7: Ah! Si, Ecco Lo Sposo
18. Scena 7: Tuo Drudo E Mio Rivale
19. Scena 7: Non Ti Basto, Consorte
20. Scena 7: Io T'abbraccio
Код: Выделить всё
1. Scena 1: Del German Nel Periglio
2. Scena 1: Un Zeffiro Spiro
3. Scena 1: Con Opra Giusta
4. Scena 1: Quanto Piu Fiera Tempesta
5. Scena 2: O Falso E Bertarido
6. Scena 2: Tra Sospetti, Affetti
7. Scena 3: Chi Di Voi Fu Piu Infedele
8. Scena 4: Non Temere. Signore!
9. Scena 4: Se'l Mio Duol
10. Scena 5: Fatto Inferno E Il Mio
11. Scena 5: Pastorello D'un Povero
12. Scena 6: Che Miro? Amica Sorte
13. Scena 7: Tu Morrai, Traditor!
14. Scena 7: Vivi Tiranno!
15. Scena 7: Dunque Sei Bertarido?
16. Scena Ultima: Ecco Ti Innanzi Il Reo
17. Scena Ultima: Mio Caro Bene!
18. Scena Ultima: Sposa, Figlio, Sorella
19. Scena Ultima: Dopo La Notte Oscura
Код: Выделить всё
George Frideric Handel (1685-1759)
[b]Rodelinda, Regina de'Langobardi, HWV 19[/b]
Dramma per musica in three acts. Libretto: Nicola Francesco Haym after Antonio Salvi & Pierre Corneille
Barbara Schlick, soprano (Rodelinda)
Claudia Schubert, alto (Eduige)
David Cordier, altus (Bertarido)
Kai Wessel, altus (Unulfo)
Christoph Prégardien, tenor (Grimoaldo)
Gotthold Schwarz, bass (Garibaldo)
[u]La Stagione Frankfurt[/u]
Conductor - Michael Schneider
Код: Выделить всё
Exact Audio Copy V1.3 from 2. September 2016
EAC extraction logfile from 27. May 2018, 17:38
La Stagione / Handel - Rodelinda (Disc 1)
Used drive  : ATAPI   iHAS124   F   Adapter: 1  ID: 0
Read mode               : Secure
Utilize accurate stream : Yes
Defeat audio cache      : Yes
Make use of C2 pointers : No
Read offset correction                      : 6
Overread into Lead-In and Lead-Out          : No
Fill up missing offset samples with silence : Yes
Delete leading and trailing silent blocks   : No
Null samples used in CRC calculations       : Yes
Used interface                              : Native Win32 interface for Win NT & 2000
Used output format              : User Defined Encoder
Selected bitrate                : 1024 kBit/s
Quality                         : High
Add ID3 tag                     : No
Command line compressor         : C:\Program Files (x86)\Exact Audio Copy\FLAC\FLAC.EXE
Additional command line options : -8 -V -T "TITLE=%title%" -T "ARTIST=%artist%" -T "ALBUMARTIST=%albumartist%" -T "ALBUM=%albumtitle%" -T "DATE=%year%" -T "TRACKNUMBER=%tracknr%" -T "TRACKTOTAL=%numtracks%" -T "GENRE=%genre%" -T "COMMENT=%comment%" -T "PERFORMER=%albuminterpret%" -T "COMPOSER=%composer%" %source% -o %dest%
TOC of the extracted CD
     Track |   Start  |  Length  | Start sector | End sector
    ---------------------------------------------------------
        1  |  0:00.00 |  3:03.52 |         0    |    13776
        2  |  3:03.52 |  1:43.40 |     13777    |    21541
        3  |  4:47.17 |  3:14.43 |     21542    |    36134
        4  |  8:01.60 |  0:53.10 |     36135    |    40119
        5  |  8:54.70 |  4:53.02 |     40120    |    62096
        6  | 13:47.72 |  0:51.53 |     62097    |    65974
        7  | 14:39.50 |  0:30.52 |     65975    |    68276
        8  | 15:10.27 |  3:52.13 |     68277    |    85689
        9  | 19:02.40 |  0:36.00 |     85690    |    88389
       10  | 19:38.40 |  3:31.52 |     88390    |   104266
       11  | 23:10.17 |  0:19.03 |    104267    |   105694
       12  | 23:29.20 |  4:04.10 |    105695    |   124004
       13  | 27:33.30 |  7:57.60 |    124005    |   159839
       14  | 35:31.15 |  1:55.72 |    159840    |   168536
       15  | 37:27.12 |  6:25.30 |    168537    |   197441
       16  | 43:52.42 |  1:39.58 |    197442    |   204924
       17  | 45:32.25 |  4:19.40 |    204925    |   224389
       18  | 49:51.65 |  0:42.10 |    224390    |   227549
       19  | 50:34.00 |  3:57.40 |    227550    |   245364
       20  | 54:31.40 |  0:50.25 |    245365    |   249139
       21  | 55:21.65 |  4:13.35 |    249140    |   268149
       22  | 59:35.25 |  0:31.70 |    268150    |   270544
       23  | 60:07.20 |  5:05.45 |    270545    |   293464
Range status and errors
Selected range
     Filename C:\EACRip\HANDEL\Handel - Rodelinda (La Stagione, Michael Schneider) (1991)\CD1\Handel - Rodelinda (Disc 1) - La Stagione.wav
     Peak level 99.0 %
     Extraction speed 9.4 X
     Range quality 100.0 %
     Test CRC 016A0BE0
     Copy CRC 016A0BE0
     Copy OK
No errors occurred
AccurateRip summary
Track  1  accurately ripped (confidence 3)  [17EB0422]  (AR v2)
Track  2  accurately ripped (confidence 3)  [BBE6B813]  (AR v2)
Track  3  accurately ripped (confidence 3)  [7367A538]  (AR v2)
Track  4  accurately ripped (confidence 3)  [4FEBCA2C]  (AR v2)
Track  5  accurately ripped (confidence 3)  [C97B8BB1]  (AR v2)
Track  6  accurately ripped (confidence 3)  [CC18E349]  (AR v2)
Track  7  accurately ripped (confidence 3)  [A005C616]  (AR v2)
Track  8  accurately ripped (confidence 3)  [5D5BF52C]  (AR v2)
Track  9  accurately ripped (confidence 3)  [421DC5FF]  (AR v2)
Track 10  accurately ripped (confidence 3)  [44FF3540]  (AR v2)
Track 11  accurately ripped (confidence 3)  [BCFFCEC3]  (AR v2)
Track 12  accurately ripped (confidence 3)  [37DB34D0]  (AR v2)
Track 13  accurately ripped (confidence 3)  [C9C9A3F2]  (AR v2)
Track 14  accurately ripped (confidence 3)  [6ADB84F8]  (AR v2)
Track 15  accurately ripped (confidence 3)  [06BFA776]  (AR v2)
Track 16  accurately ripped (confidence 3)  [BF7E1AC9]  (AR v2)
Track 17  accurately ripped (confidence 3)  [534E89B3]  (AR v2)
Track 18  accurately ripped (confidence 3)  [EE0CDE82]  (AR v2)
Track 19  accurately ripped (confidence 3)  [489E7169]  (AR v2)
Track 20  accurately ripped (confidence 3)  [385AB245]  (AR v2)
Track 21  accurately ripped (confidence 3)  [7BE2DE78]  (AR v2)
Track 22  accurately ripped (confidence 3)  [40BF0AC9]  (AR v2)
Track 23  accurately ripped (confidence 3)  [769B3C11]  (AR v2)
All tracks accurately ripped
End of status report
---- CUETools DB Plugin V2.1.6
[CTDB TOCID: o._vh9FAdLs23MYd63oHYxsJ.1o-] found
Submit result: o._vh9FAdLs23MYd63oHYxsJ.1o- has been confirmed
Track | CTDB Status
  1   | (28/28) Accurately ripped
  2   | (28/28) Accurately ripped
  3   | (28/28) Accurately ripped
  4   | (28/28) Accurately ripped
  5   | (28/28) Accurately ripped
  6   | (28/28) Accurately ripped
  7   | (28/28) Accurately ripped
  8   | (28/28) Accurately ripped
  9   | (28/28) Accurately ripped
 10   | (28/28) Accurately ripped
 11   | (28/28) Accurately ripped
 12   | (28/28) Accurately ripped
 13   | (28/28) Accurately ripped
 14   | (28/28) Accurately ripped
 15   | (28/28) Accurately ripped
 16   | (28/28) Accurately ripped
 17   | (28/28) Accurately ripped
 18   | (28/28) Accurately ripped
 19   | (28/28) Accurately ripped
 20   | (28/28) Accurately ripped
 21   | (28/28) Accurately ripped
 22   | (28/28) Accurately ripped
 23   | (28/28) Accurately ripped
==== Log checksum 3FCB829C9E72FD9CF63229E140326094E505EC0882F86F05FEBA26445D934790 ====
Код: Выделить всё
Exact Audio Copy V1.3 from 2. September 2016
EAC extraction logfile from 27. May 2018, 19:00
La Stagione / Handel - Rodelinda (Disc 2)
Used drive  : ATAPI   iHAS124   F   Adapter: 1  ID: 0
Read mode               : Secure
Utilize accurate stream : Yes
Defeat audio cache      : Yes
Make use of C2 pointers : No
Read offset correction                      : 6
Overread into Lead-In and Lead-Out          : No
Fill up missing offset samples with silence : Yes
Delete leading and trailing silent blocks   : No
Null samples used in CRC calculations       : Yes
Used interface                              : Native Win32 interface for Win NT & 2000
Used output format              : User Defined Encoder
Selected bitrate                : 1024 kBit/s
Quality                         : High
Add ID3 tag                     : No
Command line compressor         : C:\Program Files (x86)\Exact Audio Copy\FLAC\FLAC.EXE
Additional command line options : -8 -V -T "TITLE=%title%" -T "ARTIST=%artist%" -T "ALBUMARTIST=%albumartist%" -T "ALBUM=%albumtitle%" -T "DATE=%year%" -T "TRACKNUMBER=%tracknr%" -T "TRACKTOTAL=%numtracks%" -T "GENRE=%genre%" -T "COMMENT=%comment%" -T "PERFORMER=%albuminterpret%" -T "COMPOSER=%composer%" %source% -o %dest%
TOC of the extracted CD
     Track |   Start  |  Length  | Start sector | End sector
    ---------------------------------------------------------
        1  |  0:00.00 |  0:53.28 |         0    |     4002
        2  |  0:53.28 |  0:51.50 |      4003    |     7877
        3  |  1:45.03 |  5:28.27 |      7878    |    32504
        4  |  7:13.30 |  1:48.38 |     32505    |    40642
        5  |  9:01.68 |  4:20.22 |     40643    |    60164
        6  | 13:22.15 |  0:54.45 |     60165    |    64259
        7  | 14:16.60 |  5:16.40 |     64260    |    87999
        8  | 19:33.25 |  0:30.48 |     88000    |    90297
        9  | 20:03.73 |  2:28.72 |     90298    |   101469
       10  | 22:32.70 |  0:34.33 |    101470    |   104052
       11  | 23:07.28 |  4:42.02 |    104053    |   125204
       12  | 27:49.30 |  6:14.50 |    125205    |   153304
       13  | 34:04.05 |  1:59.30 |    153305    |   162259
       14  | 36:03.35 |  4:19.33 |    162260    |   181717
       15  | 40:22.68 |  0:56.30 |    181718    |   185947
       16  | 41:19.23 |  4:10.32 |    185948    |   204729
       17  | 45:29.55 |  2:48.05 |    204730    |   217334
       18  | 48:17.60 |  3:16.68 |    217335    |   232102
       19  | 51:34.53 |  0:54.05 |    232103    |   236157
       20  | 52:28.58 |  7:23.60 |    236158    |   269442
Range status and errors
Selected range
     Filename C:\EACRip\HANDEL\Handel - Rodelinda (La Stagione, Michael Schneider) (1991)\CD2\Handel - Rodelinda (Disc 2) - La Stagione.wav
     Peak level 98.9 %
     Extraction speed 8.5 X
     Range quality 99.9 %
     Test CRC 73E93DD3
     Copy CRC 73E93DD3
     Copy OK
No errors occurred
AccurateRip summary
Track  1  accurately ripped (confidence 3)  [947D990E]  (AR v2)
Track  2  accurately ripped (confidence 3)  [F5484641]  (AR v2)
Track  3  accurately ripped (confidence 3)  [5BD3FCDD]  (AR v2)
Track  4  accurately ripped (confidence 3)  [A9675023]  (AR v2)
Track  5  accurately ripped (confidence 3)  [1FE99088]  (AR v2)
Track  6  accurately ripped (confidence 3)  [A821E6D4]  (AR v2)
Track  7  accurately ripped (confidence 3)  [B857E1ED]  (AR v2)
Track  8  accurately ripped (confidence 3)  [E7E85422]  (AR v2)
Track  9  accurately ripped (confidence 3)  [BF6E233E]  (AR v2)
Track 10  accurately ripped (confidence 3)  [5B9FE5DD]  (AR v2)
Track 11  accurately ripped (confidence 3)  [07729866]  (AR v2)
Track 12  accurately ripped (confidence 3)  [67942335]  (AR v2)
Track 13  accurately ripped (confidence 3)  [5F80DC67]  (AR v2)
Track 14  accurately ripped (confidence 3)  [8CB16C2A]  (AR v2)
Track 15  accurately ripped (confidence 3)  [3B8637AF]  (AR v2)
Track 16  accurately ripped (confidence 3)  [952EB982]  (AR v2)
Track 17  accurately ripped (confidence 3)  [0BD441BB]  (AR v2)
Track 18  accurately ripped (confidence 3)  [67458883]  (AR v2)
Track 19  accurately ripped (confidence 3)  [32A126DC]  (AR v2)
Track 20  accurately ripped (confidence 3)  [B4BD82F4]  (AR v2)
All tracks accurately ripped
End of status report
---- CUETools DB Plugin V2.1.6
[CTDB TOCID: TUYXWsch1yatgacLz_Nor7U7FSw-] found
Submit result: TUYXWsch1yatgacLz_Nor7U7FSw- has been confirmed
Track | CTDB Status
  1   | (29/29) Accurately ripped
  2   | (29/29) Accurately ripped
  3   | (29/29) Accurately ripped
  4   | (29/29) Accurately ripped
  5   | (29/29) Accurately ripped
  6   | (29/29) Accurately ripped
  7   | (29/29) Accurately ripped
  8   | (29/29) Accurately ripped
  9   | (29/29) Accurately ripped
 10   | (29/29) Accurately ripped
 11   | (29/29) Accurately ripped
 12   | (29/29) Accurately ripped
 13   | (29/29) Accurately ripped
 14   | (29/29) Accurately ripped
 15   | (29/29) Accurately ripped
 16   | (29/29) Accurately ripped
 17   | (29/29) Accurately ripped
 18   | (29/29) Accurately ripped
 19   | (29/29) Accurately ripped
 20   | (29/29) Accurately ripped
==== Log checksum 55A47B5413B5559F65BA6BFD44FEED7E6EA7AE9BF50AE74D7CE21C02E873760D ====
Код: Выделить всё
Exact Audio Copy V1.3 from 2. September 2016
EAC extraction logfile from 27. May 2018, 19:54
La Stagione / Handel - Rodelinda (Disc 3)
Used drive  : ATAPI   iHAS124   F   Adapter: 1  ID: 0
Read mode               : Secure
Utilize accurate stream : Yes
Defeat audio cache      : Yes
Make use of C2 pointers : No
Read offset correction                      : 6
Overread into Lead-In and Lead-Out          : No
Fill up missing offset samples with silence : Yes
Delete leading and trailing silent blocks   : No
Null samples used in CRC calculations       : Yes
Used interface                              : Native Win32 interface for Win NT & 2000
Used output format              : User Defined Encoder
Selected bitrate                : 1024 kBit/s
Quality                         : High
Add ID3 tag                     : No
Command line compressor         : C:\Program Files (x86)\Exact Audio Copy\FLAC\FLAC.EXE
Additional command line options : -8 -V -T "TITLE=%title%" -T "ARTIST=%artist%" -T "ALBUMARTIST=%albumartist%" -T "ALBUM=%albumtitle%" -T "DATE=%year%" -T "TRACKNUMBER=%tracknr%" -T "TRACKTOTAL=%numtracks%" -T "GENRE=%genre%" -T "COMMENT=%comment%" -T "PERFORMER=%albuminterpret%" -T "COMPOSER=%composer%" %source% -o %dest%
TOC of the extracted CD
     Track |   Start  |  Length  | Start sector | End sector
    ---------------------------------------------------------
        1  |  0:00.00 |  1:02.05 |         0    |     4654
        2  |  1:02.05 |  5:01.25 |      4655    |    27254
        3  |  6:03.30 |  0:28.55 |     27255    |    29409
        4  |  6:32.10 |  3:19.68 |     29410    |    44402
        5  |  9:52.03 |  1:14.50 |     44403    |    50002
        6  | 11:06.53 |  4:26.00 |     50003    |    69952
        7  | 15:32.53 |  6:03.02 |     69953    |    97179
        8  | 21:35.55 |  1:50.35 |     97180    |   105464
        9  | 23:26.15 |  6:56.58 |    105465    |   136722
       10  | 30:22.73 |  3:34.60 |    136723    |   152832
       11  | 33:57.58 |  4:35.22 |    152833    |   173479
       12  | 38:33.05 |  0:22.08 |    173480    |   175137
       13  | 38:55.13 |  0:52.52 |    175138    |   179089
       14  | 39:47.65 |  5:29.25 |    179090    |   203789
       15  | 45:17.15 |  0:12.33 |    203790    |   204722
       16  | 45:29.48 |  1:10.17 |    204723    |   209989
       17  | 46:39.65 |  3:42.43 |    209990    |   226682
       18  | 50:22.33 |  0:38.32 |    226683    |   229564
       19  | 51:00.65 |  1:30.28 |    229565    |   236342
Range status and errors
Selected range
     Filename C:\EACRip\HANDEL\Handel - Rodelinda (La Stagione, Michael Schneider) (1991)\CD3\Handel - Rodelinda (Disc 3) - La Stagione.wav
     Peak level 99.0 %
     Extraction speed 8.2 X
     Range quality 100.0 %
     Test CRC 43DA319F
     Copy CRC 43DA319F
     Copy OK
No errors occurred
AccurateRip summary
Track  1  accurately ripped (confidence 3)  [B198F16F]  (AR v2)
Track  2  accurately ripped (confidence 3)  [167C707A]  (AR v2)
Track  3  accurately ripped (confidence 3)  [06D471EE]  (AR v2)
Track  4  accurately ripped (confidence 3)  [530D47AB]  (AR v2)
Track  5  accurately ripped (confidence 3)  [2EA9D153]  (AR v2)
Track  6  accurately ripped (confidence 3)  [C5B3DE4F]  (AR v2)
Track  7  accurately ripped (confidence 3)  [A8A04BAB]  (AR v2)
Track  8  accurately ripped (confidence 3)  [BD4CADAC]  (AR v2)
Track  9  accurately ripped (confidence 3)  [15523BB3]  (AR v2)
Track 10  accurately ripped (confidence 3)  [C8358D0A]  (AR v2)
Track 11  accurately ripped (confidence 3)  [82C27087]  (AR v2)
Track 12  accurately ripped (confidence 3)  [9A1EF5A3]  (AR v2)
Track 13  accurately ripped (confidence 3)  [56F8D02C]  (AR v2)
Track 14  accurately ripped (confidence 3)  [D86CFCD2]  (AR v2)
Track 15  accurately ripped (confidence 3)  [66D9F4EC]  (AR v2)
Track 16  accurately ripped (confidence 3)  [BFFFCACC]  (AR v2)
Track 17  accurately ripped (confidence 3)  [3B6EFBD5]  (AR v2)
Track 18  accurately ripped (confidence 3)  [6EC01D73]  (AR v2)
Track 19  accurately ripped (confidence 3)  [9BFEC8FE]  (AR v2)
All tracks accurately ripped
End of status report
---- CUETools DB Plugin V2.1.6
[CTDB TOCID: 1oZyDMegRx_fdU1ZXUIUb39AB_s-] found
Submit result: 1oZyDMegRx_fdU1ZXUIUb39AB_s- has been confirmed
Track | CTDB Status
  1   | (28/28) Accurately ripped
  2   | (28/28) Accurately ripped
  3   | (28/28) Accurately ripped
  4   | (28/28) Accurately ripped
  5   | (28/28) Accurately ripped
  6   | (28/28) Accurately ripped
  7   | (28/28) Accurately ripped
  8   | (28/28) Accurately ripped
  9   | (28/28) Accurately ripped
 10   | (28/28) Accurately ripped
 11   | (28/28) Accurately ripped
 12   | (28/28) Accurately ripped
 13   | (28/28) Accurately ripped
 14   | (28/28) Accurately ripped
 15   | (28/28) Accurately ripped
 16   | (28/28) Accurately ripped
 17   | (28/28) Accurately ripped
 18   | (28/28) Accurately ripped
 19   | (28/28) Accurately ripped
==== Log checksum 266A33E8BF0BD9127AA60DED898380B3FDF5FEA60051D49C697CE757603D6843 ====
Код: Выделить всё
REM GENRE Classical
REM DATE 1991
REM DISCID 4A0F4817
REM COMMENT "ExactAudioCopy v1.3"
PERFORMER "La Stagione Frankfurt, Michael Schneider (complete direction) / Barbara Schlick, soprano (Rodelinda), Claudia Schubert, alto (Eduige), David Cordier, altus (Bertarido), Kai Wessel, altus (Unulfo), Christoph Pregardien, tenor (Grimoaldo), Gotthold Schwarz, bass (Garibaldo)"
TITLE "Handel - Rodelinda (Disc 1)"
REM COMPOSER "George Frideric Handel (1685-1759)"
FILE "Handel - Rodelinda (Disc 1) - La Stagione.flac" WAVE
  TRACK 01 AUDIO
    TITLE "Rodelinda, Regina de'Longobardi, HWV 19. Dramma per musica in three acts. Libretto: Nicola Francesco Haym after Antonio Salvi & Pierre Corneille. ATTO PRIMO - Ouverture"
    PERFORMER "La Stagione Frankfurt, Michael Schneider"
    REM COMPOSER "George Frideric Handel"
    INDEX 01 00:00:00
  TRACK 02 AUDIO
    TITLE "Menuet"
    PERFORMER "La Stagione Frankfurt, Michael Schneider"
    REM COMPOSER "George Frideric Handel"
    INDEX 01 03:03:52
  TRACK 03 AUDIO
    TITLE "Scena I. Aria: “Hò perduto il caro sposo”  (Rodelinda)"
    PERFORMER "La Stagione Frankfurt, Michael Schneider & Barbara Schlick"
    REM COMPOSER "George Frideric Handel"
    INDEX 01 04:47:17
  TRACK 04 AUDIO
    TITLE "Scena I. Recitativo: “Regina!” (Grimoaldo, Rodelinda)"
    PERFORMER "La Stagione Frankfurt, Michael Schneider & Christoph Pregardien, Barbara Schlick"
    REM COMPOSER "George Frideric Handel"
    INDEX 01 08:01:60
  TRACK 05 AUDIO
    TITLE "Scena I. Aria: “L'empio rigor de fato” (Rodelinda)"
    PERFORMER "La Stagione Frankfurt, Michael Schneider & Barbara Schlick"
    REM COMPOSER "George Frideric Handel"
    INDEX 01 08:54:70
  TRACK 06 AUDIO
    TITLE "Scena II. Recitativo: “Duca, vedesti mai più bel disprezzo?” (Grimoaldo, Garibaldo)"
    PERFORMER "La Stagione Frankfurt, Michael Schneider & Christoph Pregardien, Gotthold Schwarz"
    REM COMPOSER "George Frideric Handel"
    INDEX 01 13:47:72
  TRACK 07 AUDIO
    TITLE "Scena III. Recitativo: “E tanto da che sei Rè” (Eduige, Grimoaldo)"
    PERFORMER "La Stagione Frankfurt, Michael Schneider & Claudia Schubert, Christoph Pregardien"
    REM COMPOSER "George Frideric Handel"
    INDEX 01 14:39:50
  TRACK 08 AUDIO
    TITLE "Scena III. Aria: “Io già t'amai, ritrosa” (Grimoaldo)"
    PERFORMER "La Stagione Frankfurt, Michael Schneider & Christoph Pregardien"
    REM COMPOSER "George Frideric Handel"
    INDEX 01 15:10:27
  TRACK 09 AUDIO
    TITLE "Scena IV. Recitativo: “E tu dice d'amarmi?” (Eduige, Garibaldo)"
    PERFORMER "La Stagione Frankfurt, Michael Schneider & Claudia Schubert, Christoph Pregardien"
    REM COMPOSER "George Frideric Handel"
    INDEX 01 19:02:40
  TRACK 10 AUDIO
    TITLE "Scena IV. Aria: “Lo farò, dirò spietato” (Eduige)"
    PERFORMER "La Stagione Frankfurt, Michael Schneider & Claudia Schubert"
    REM COMPOSER "George Frideric Handel"
    INDEX 01 19:38:40
  TRACK 11 AUDIO
    TITLE "Scena V. Recitativo: “Eduige, t'inganni” (Garibaldo)"
    PERFORMER "La Stagione Frankfurt, Michael Schneider & Gotthold Schwarz"
    REM COMPOSER "George Frideric Handel"
    INDEX 01 23:10:17
  TRACK 12 AUDIO
    TITLE "Scena V. Aria: “Di Cupido impiego i vanni” (Garibaldo)"
    PERFORMER "La Stagione Frankfurt, Michael Schneider & Gotthold Schwarz"
    REM COMPOSER "George Frideric Handel"
    INDEX 00 23:28:35
    INDEX 01 23:29:20
  TRACK 13 AUDIO
    TITLE "Scena VI. Sinfonia. Recitativo: “Pompe vane di morte!” (Bertarido) ; Aria: “Dove sei, amato bene!” (Bertarido)"
    PERFORMER "La Stagione Frankfurt, Michael Schneider & David Cordier"
    REM COMPOSER "George Frideric Handel"
    INDEX 00 27:31:35
    INDEX 01 27:33:30
  TRACK 14 AUDIO
    TITLE "Scena VI. Recitativo: “Mà giunge Unulfo” (Bertarido, Unulfo)"
    PERFORMER "La Stagione Frankfurt, Michael Schneider & David Cordier, Kai Wessel"
    REM COMPOSER "George Frideric Handel"
    INDEX 01 35:31:15
  TRACK 15 AUDIO
    TITLE "Scena VII. Aria: “Ombre, piante, urne funeste!” (Rodelinda) ; Recitativo: “Ombra del mio bel sol, che più d'intorno” (Rodelinda, Bertarido, Unulfo)"
    PERFORMER "La Stagione Frankfurt, Michael Schneider & Barbara Schlick, David Cordier, Kai Wessel"
    REM COMPOSER "George Frideric Handel"
    INDEX 00 37:25:35
    INDEX 01 37:27:12
  TRACK 16 AUDIO
    TITLE "Scena VIII. Recitativo: “Baci inutile e vani porgi alle tombe” (Garibaldo, Bertarido, Unulfo, Rodelinda)"
    PERFORMER "La Stagione Frankfurt, Michael Schneider & Gotthold Schwarz, David Cordier, Kai Wessel, Barbara Schlick"
    REM COMPOSER "George Frideric Handel"
    INDEX 01 43:52:42
  TRACK 17 AUDIO
    TITLE "Scena VIII. Aria: “Morrai sì, l'empia tua testa” (Rodelinda)"
    PERFORMER "La Stagione Frankfurt, Michael Schneider & Barbara Schlick"
    REM COMPOSER "George Frideric Handel"
    INDEX 01 45:32:25
  TRACK 18 AUDIO
    TITLE "Scena IX. Recitativo: “E ben, Duca, poss'io” (Grimoaldo, Garibaldo)"
    PERFORMER "La Stagione Frankfurt, Michael Schneider & Christoph Pregardien, Gotthold Schwarz"
    REM COMPOSER "George Frideric Handel"
    INDEX 00 49:50:35
    INDEX 01 49:51:65
  TRACK 19 AUDIO
    TITLE "Scena IX. Aria: “Se per te giungo a godere” (Grimoaldo)"
    PERFORMER "La Stagione Frankfurt, Michael Schneider & Christoph Pregardien"
    REM COMPOSER "George Frideric Handel"
    INDEX 00 50:32:35
    INDEX 01 50:34:00
  TRACK 20 AUDIO
    TITLE "Scena X. Recitativo: “Unulfo, oh Dio!” (Bertarido, Unulfo)"
    PERFORMER "La Stagione Frankfurt, Michael Schneider & David Cordier, Kai Wessel"
    REM COMPOSER "George Frideric Handel"
    INDEX 00 54:30:35
    INDEX 01 54:31:40
  TRACK 21 AUDIO
    TITLE "Scena X. Aria: “Sono i colpi della sorte” (Unulfo)"
    PERFORMER "La Stagione Frankfurt, Michael Schneider & Kai Wessel"
    REM COMPOSER "George Frideric Handel"
    INDEX 01 55:21:65
  TRACK 22 AUDIO
    TITLE "Scena XI. Recitativo: “Sì, l'infida consorte” (Bertarido)"
    PERFORMER "La Stagione Frankfurt, Michael Schneider & David Cordier"
    REM COMPOSER "George Frideric Handel"
    INDEX 01 59:35:25
  TRACK 23 AUDIO
    TITLE "Scena XI. Aria: “Confusa si miri” (Bertarido)"
    PERFORMER "La Stagione Frankfurt, Michael Schneider & David Cordier"
    REM COMPOSER "George Frideric Handel"
    INDEX 01 60:07:20
Код: Выделить всё
REM GENRE Classical
REM DATE 1991
REM DISCID 0E0E0814
REM COMMENT "ExactAudioCopy v1.3"
PERFORMER "La Stagione Frankfurt, Michael Schneider (complete direction) / Barbara Schlick, soprano (Rodelinda), Claudia Schubert, alto (Eduige), David Cordier, altus (Bertarido), Kai Wessel, altus (Unulfo), Christoph Pregardien, tenor (Grimoaldo), Gotthold Schwarz, bass (Garibaldo)"
TITLE "Handel - Rodelinda (Disc 2)"
REM COMPOSER "George Frideric Handel (1685-1759)"
FILE "Handel - Rodelinda (Disc 2) - La Stagione.flac" WAVE
  TRACK 01 AUDIO
    TITLE "ATTO SECONDO. Scena I. Recitativo: “Già perdesti, oh signora” (Garibaldo, Eduige)"
    PERFORMER "La Stagione Frankfurt, Michael Schneider & Gotthold Schwarz, Claudia Schubert"
    REM COMPOSER "George Frideric Handel"
    INDEX 01 00:00:00
  TRACK 02 AUDIO
    TITLE "Scena II. Recitativo: “Rodelinda, sì mesta ritorni” (Eduige, Rodelinda)"
    PERFORMER "La Stagione Frankfurt, Michael Schneider & Claudia Schubert, Barbara Schlick"
    REM COMPOSER "George Frideric Handel"
    INDEX 01 00:53:28
  TRACK 03 AUDIO
    TITLE "Scena II. Aria: “De'miei scherni per far le vindette” (Eduige)"
    PERFORMER "La Stagione Frankfurt, Michael Schneider & Claudia Schubert"
    REM COMPOSER "George Frideric Handel"
    INDEX 00 01:43:68
    INDEX 01 01:45:03
  TRACK 04 AUDIO
    TITLE "Scena III. Recitativo: “Rodelinda, è pur ver?...” (Grimoaldo, Rodelinda, Unulfo, Garibaldo)"
    PERFORMER "La Stagione Frankfurt, Michael Schneider & Christoph Pregardien, Barbara Schlick, Kai Wessel, Christoph Pregardien"
    REM COMPOSER "George Frideric Handel"
    INDEX 01 07:13:30
  TRACK 05 AUDIO
    TITLE "Scena III. Aria: “Spietati, io vi giurai” (Rodelinda)"
    PERFORMER "La Stagione Frankfurt, Michael Schneider & Barbara Schlick"
    REM COMPOSER "George Frideric Handel"
    INDEX 00 09:01:43
    INDEX 01 09:01:68
  TRACK 06 AUDIO
    TITLE "Scena IV. Recitativo: “Unulfo, Garibaldo, in questo seno muor” (Grimoaldo, Unulfo, Garibaldo)"
    PERFORMER "La Stagione Frankfurt, Michael Schneider & Christoph Pregardien, Kai Wessel, Gotthold Schwarz"
    REM COMPOSER "George Frideric Handel"
    INDEX 01 13:22:15
  TRACK 07 AUDIO
    TITLE "Scena IV. Aria: “Prigioniera hò l'alma in pena” (Grimoaldo)"
    PERFORMER "La Stagione Frankfurt, Michael Schneider & Christoph Pregardien"
    REM COMPOSER "George Frideric Handel"
    INDEX 00 14:15:43
    INDEX 01 14:16:60
  TRACK 08 AUDIO
    TITLE "Scena IV. Recitativo: “Massime così indegne” (Unulfo, Garibaldo)"
    PERFORMER "La Stagione Frankfurt, Michael Schneider & Kai Wessel, Christoph Pregardien"
    REM COMPOSER "George Frideric Handel"
    INDEX 00 19:31:43
    INDEX 01 19:33:25
  TRACK 09 AUDIO
    TITLE "Scena IV. Aria: “Tirannia gli diede il regno” (Garibaldo)"
    PERFORMER "La Stagione Frankfurt, Michael Schneider & Christoph Pregardien"
    REM COMPOSER "George Frideric Handel"
    INDEX 01 20:03:73
  TRACK 10 AUDIO
    TITLE "Scena IV.Recitativo: “Sì, sì fellon, t'intendo, e non m'inganno” (Unulfo)"
    PERFORMER "La Stagione Frankfurt, Michael Schneider & Kai Wessel"
    REM COMPOSER "George Frideric Handel"
    INDEX 01 22:32:70
  TRACK 11 AUDIO
    TITLE "Scena IV.Aria: “Frà tempeste funeste a quest'alma” (Unulfo)"
    PERFORMER "La Stagione Frankfurt, Michael Schneider & Kai Wessel"
    REM COMPOSER "George Frideric Handel"
    INDEX 00 23:06:43
    INDEX 01 23:07:28
  TRACK 12 AUDIO
    TITLE "Scena V. Aria: “Con rauco mormorio” (Bertarido) ; Recitativo: “Dell'estino germano mi sembrano” (Eduige, Bertarido)"
    PERFORMER "La Stagione Frankfurt, Michael Schneider & David Cordier, Claudia Schubert"
    REM COMPOSER "George Frideric Handel"
    INDEX 00 27:45:43
    INDEX 01 27:49:30
  TRACK 13 AUDIO
    TITLE "Scena V. Recitativo: “Ah, nò; che non m'inganna la voce e'l volto” (Eduige, Bertarido, Unulfo)"
    PERFORMER "La Stagione Frankfurt, Michael Schneider & Claudia Schubert, David Cordier, Kai Wessel"
    REM COMPOSER "George Frideric Handel"
    INDEX 01 34:04:05
  TRACK 14 AUDIO
    TITLE "Scena V. Aria: “Scacciata dal suo nido” (Bertarido)"
    PERFORMER "La Stagione Frankfurt, Michael Schneider & David Cordier"
    REM COMPOSER "George Frideric Handel"
    INDEX 01 36:03:35
  TRACK 15 AUDIO
    TITLE "Scena VI. Recitativo: “Vive il mio sposo?” (Rodelinda, Unulfo)"
    PERFORMER "La Stagione Frankfurt, Michael Schneider & Barbara Schlick, Kai Wessel"
    REM COMPOSER "George Frideric Handel"
    INDEX 00 40:22:43
    INDEX 01 40:22:68
  TRACK 16 AUDIO
    TITLE "Scena VI. Aria: “Ritorna, oh caro e dolce” (Grimoaldo)"
    PERFORMER "La Stagione Frankfurt, Michael Schneider & Christoph Pregardien"
    REM COMPOSER "George Frideric Handel"
    INDEX 01 41:19:23
  TRACK 17 AUDIO
    TITLE "Scena VII. Recitativo: “Ah! sì, ecco lo sposo” (Rodelinda, Bertarido, Grimoaldo)"
    PERFORMER "La Stagione Frankfurt, Michael Schneider & Barbara Schlick, David Cordier, Christoph Pregardien"
    REM COMPOSER "George Frideric Handel"
    INDEX 00 45:29:43
    INDEX 01 45:29:55
  TRACK 18 AUDIO
    TITLE "Scena VII. Aria: “Tuo drudo è mio rivale” (Grimoaldo)"
    PERFORMER "La Stagione Frankfurt, Michael Schneider & Christoph Pregardien"
    REM COMPOSER "George Frideric Handel"
    INDEX 01 48:17:60
  TRACK 19 AUDIO
    TITLE "Scena VII. Recitativo: “Non, ti bastò, Consorte, trafiggermi da lungi” (Rodelinda, Bertarido)"
    PERFORMER "La Stagione Frankfurt, Michael Schneider & Barbara Schlick, David Cordier"
    REM COMPOSER "George Frideric Handel"
    INDEX 01 51:34:53
  TRACK 20 AUDIO
    TITLE "Scena VII. Duetto: “Io t'abbraccio” (Rodelinda, Bertarido)"
    PERFORMER "La Stagione Frankfurt, Michael Schneider & Barbara Schlick, David Cordier"
    REM COMPOSER "George Frideric Handel"
    INDEX 00 52:28:43
    INDEX 01 52:28:58
Код: Выделить всё
REM GENRE Classical
REM DATE 1991
REM DISCID 0D0C4F13
REM COMMENT "ExactAudioCopy v1.3"
PERFORMER "La Stagione Frankfurt, Michael Schneider (complete direction) / Barbara Schlick, soprano (Rodelinda), Claudia Schubert, alto (Eduige), David Cordier, altus (Bertarido), Kai Wessel, altus (Unulfo), Christoph Pregardien, tenor (Grimoaldo), Gotthold Schwarz, bass (Garibaldo)"
TITLE "Handel: Rodelinda (Disc 3)"
REM COMPOSER "George Frideric Handel (1685-1759)"
FILE "Handel - Rodelinda (Disc 3) - La Stagione.flac" WAVE
  TRACK 01 AUDIO
    TITLE "ATTO TERZO. Scena I. Recitativo: “Del german nel periglio” (Eduige, Unulfo)"
    PERFORMER "La Stagione Frankfurt, Michael Schneider & Claudia Schubert, Kai Wessel"
    REM COMPOSER "George Frideric Handel"
    INDEX 01 00:00:00
  TRACK 02 AUDIO
    TITLE "Scena I. Aria: “Un zeffiro spirò” (Unulfo)"
   PERFORMER "La Stagione Frankfurt, Michael Schneider & Kai Wessel"
    REM COMPOSER "George Frideric Handel"
    INDEX 01 01:02:05
  TRACK 03 AUDIO
    TITLE "Scena I. Recitativo: “Con opra giusta io cansellar disegno” (Eduige)"
   PERFORMER "La Stagione Frankfurt, Michael Schneider & Claudia Schubert"
    REM COMPOSER "George Frideric Handel"
    INDEX 01 06:03:30
  TRACK 04 AUDIO
    TITLE "Scena I. Aria: “Quanto più fiera tempesta freme” (Eduige)"
   PERFORMER "La Stagione Frankfurt, Michael Schneider & Claudia Schubert"
    REM COMPOSER "George Frideric Handel"
    INDEX 00 06:30:18
    INDEX 01 06:32:10
  TRACK 05 AUDIO
    TITLE "Scena II. Recitativo: “O falso è Bertarido” (Garibaldo, Grimoaldo)"
   PERFORMER "La Stagione Frankfurt, Michael Schneider & Gotthold Schwarz, Christoph Pregardien"
    REM COMPOSER "George Frideric Handel"
    INDEX 01 09:52:03
  TRACK 06 AUDIO
    TITLE "Scena II. Aria: “Trà sospetti, affetti, e timori” (Grimoaldo)"
   PERFORMER "La Stagione Frankfurt, Michael Schneider & Christoph Pregardien"
    REM COMPOSER "George Frideric Handel"
    INDEX 01 11:06:53
  TRACK 07 AUDIO
    TITLE "Scena III. Aria: “Chi di voi fù più infedele” (Bertarido) ; Recitativo: “Mà non che sò dal remoto” (Bertarido, Unulfo)"
   PERFORMER "La Stagione Frankfurt, Michael Schneider & David Cordier, Kai Wessel"
    REM COMPOSER "George Frideric Handel"
    INDEX 00 15:27:18
    INDEX 01 15:32:53
  TRACK 08 AUDIO
    TITLE "Scena IV. Recitativo: “Non temere. Signore! Germano! alcun non sento” (Eduige, Rodelinda)"
   PERFORMER "La Stagione Frankfurt, Michael Schneider & Claudia Schubert, Barbara Schlick"
    REM COMPOSER "George Frideric Handel"
    INDEX 01 21:35:55
  TRACK 09 AUDIO
    TITLE "Scena IV. Aria: “Se'l mio duol non è sì forte” (Rodelinda)"
   PERFORMER "La Stagione Frankfurt, Michael Schneider & Barbara Schlick"
    REM COMPOSER "George Frideric Handel"
    INDEX 01 23:26:15
  TRACK 10 AUDIO
    TITLE "Scena V. Recitativo: “Fatto inferno è il mio petto” (Grimoaldo)"
   PERFORMER "La Stagione Frankfurt, Michael Schneider & Christoph Pregardien"
    REM COMPOSER "George Frideric Handel"
    INDEX 00 30:21:18
    INDEX 01 30:22:73
  TRACK 11 AUDIO
    TITLE "Scena V. Aria: “Pastorello d'un povero armento” (Grimoaldo)"
   PERFORMER "La Stagione Frankfurt, Michael Schneider & Christoph Pregardien"
    REM COMPOSER "George Frideric Handel"
    INDEX 00 33:57:18
    INDEX 01 33:57:58
  TRACK 12 AUDIO
    TITLE "Scena VI. Recitativo: “Che miro? amica sorte seconda i miei desegni” (Garibaldo, Grimoaldo)"
   PERFORMER "La Stagione Frankfurt, Michael Schneider &  Gotthold Schwarz, Christoph Pregardien"
    REM COMPOSER "George Frideric Handel"
    INDEX 01 38:33:05
  TRACK 13 AUDIO
    TITLE "Scena VII. Recitativo: Tu morrai, traditor!” (Bertarido, Grimoaldo, Rodelinda)"
   PERFORMER "La Stagione Frankfurt, Michael Schneider & David Cordier, Christoph Pregardien, Barbara Schlick"
    REM COMPOSER "George Frideric Handel"
    INDEX 01 38:55:13
  TRACK 14 AUDIO
    TITLE "Scena VII. Aria: “Vivi tiranno! io t'ho scampato svenami, ingrato, sfoga il furor” (Bertarido)"
   PERFORMER "La Stagione Frankfurt, Michael Schneider & David Cordier"
    REM COMPOSER "George Frideric Handel"
    INDEX 00 39:47:18
    INDEX 01 39:47:65
  TRACK 15 AUDIO
    TITLE "Scena VII. Recitativo: “Dunque sei Bertarido?” (Grimoaldo, Rodelinda)"
   PERFORMER "La Stagione Frankfurt, Michael Schneider & Christoph Pregardien, Barbara Schlick"
    REM COMPOSER "George Frideric Handel"
    INDEX 00 45:16:18
    INDEX 01 45:17:15
  TRACK 16 AUDIO
    TITLE "Scena Ultima. Recitativo: “Ecco ti innanzi ir reo” (Unulfo, Eduige, Grimoaldo, Bertarido, Rodelinda)"
   PERFORMER "La Stagione Frankfurt, Michael Schneider & Claudia Schubert, Claudia Schubert, Christoph Pregardien, David Cordier, Barbara Schlick"
    REM COMPOSER "George Frideric Handel"
    INDEX 01 45:29:48
  TRACK 17 AUDIO
    TITLE "Scena Ultima. Aria: “Mio caro bene!” (Rodelinda)"
   PERFORMER "La Stagione Frankfurt, Michael Schneider & Barbara Schlick"
    REM COMPOSER "George Frideric Handel"
    INDEX 01 46:39:65
  TRACK 18 AUDIO
    TITLE "Scena Ultima. Recitativo: “Sposa, figlio, sorella, amici, oh Dio!” (Bertarido)"
   PERFORMER "La Stagione Frankfurt, Michael Schneider & David Cordier"
    REM COMPOSER "George Frideric Handel"
    INDEX 01 50:22:33
  TRACK 19 AUDIO
    TITLE "Scena Ultima. Coro: “Dopo la notte oscura più lucido”"
   PERFORMER "La Stagione Frankfurt, Michael Schneider & Barbara Schlick, Claudia Schubert, David Cordier, Kai Wessel, Christoph Pregardien, Gotthold Schwarz"
    REM COMPOSER "George Frideric Handel"
    INDEX 01 51:00:65
 
Не забывайте говорить Спасибо. Не уходите с раздачи!   
Торрент: Зарегистрирован [15 дек 2013, 15:42] Скачать торрент
Скачать торрент
[ Размер 23.97 КБ / Просмотров 11 ]
Статус:
Проверен
 
.torrent скачан: 0 раз
Хэш: fc3039a2ea886dd3d27aeba9150d9813cb908216
Размер: 936.61 МБ (982 107 729 байт)
Стать Автором раздачи
 
 
Раздал: 0 байт
Скачал: 0 байт
Ратио: Inf.
Сообщения: 487468
Зарегистрирован: 17 апр 2014, 13:57


  • Похожие торренты
    Ответы
    Просмотры
    Последнее сообщение

Вернуться в Опера (lossless)

Ресурс не предоставляет электронные версии произведений, а занимается лишь коллекционированием и каталогизацией ссылок, присылаемых и публикуемых на форуме нашими читателями. Если вы являетесь правообладателем какого-либо представленного материала и не желаете чтобы ссылка на него находилась в нашем каталоге, свяжитесь с нами и мы незамедлительно удалим её. Файлы для обмена на трекере предоставлены пользователями сайта, и администрация не несёт ответственности за их содержание. Просьба не заливать файлы, защищенные авторскими правами, а также файлы нелегального содержания!
cron