Не зевай 115 выпусков [2005-2008, детские новости, TVRip]

 
 Статистика раздачи 
Размер: 33.97 ГБ   |  Зарегистрирован: 18 фев 2015, 12:40   |   .torrent скачан: 0 раз
Сидеров: 1  [ 0 байт/сек ]     Личеров: 0  [ 0 байт/сек ]  
  

Не зевай 115 выпусков [2005-2008, детские новости, TVRip]

Сообщение Nakazhu » 28 июн 2018, 20:28

Не зевай 115 выпусков
Дата/Год выпуска: 2005-2008
Страна: Россия
Жанр: детские новости
Продолжительность: 00:17:00
Перевод: Не требуется
Телеканал: Волга
Описание: Нижегородские детские новости. Уроки незевайства - для пользы, а не для зазнайства.
Доп. информация: Нумерация выпусков произвольная. В более новых выпусках сохранена очерёдность и есть дата выхода. В старых выпусках с кассет очерёдности и дат нет.
качество: TVRip
формат: AVI
Видео: XviD, 640х480, 4:3, 2300 Кбит/сек, 25,000 кадров/сек
Аудио: MP3, 192 Кбит/сек, 48,0 КГц, 2 канала
Код: Выделить всё
Общее
Полное имя                               : D:\Раздавать\Не зевай\Не зевай 1.avi
Формат                                   : AVI
Формат/Информация                        : Audio Video Interleave
Размер файла                             : 314 Мбайт
Продолжительность                        : 17 м.
Общий поток                              : 2502 Кбит/сек
Программа кодирования                    : Lavf57.26.100
Видео
Идентификатор                            : 0
Формат                                   : MPEG-4 Visual
Профиль формата                          : Simple@L1
Параметр BVOP формата                    : Нет
Параметр QPel формата                    : Нет
Параметр GMC формата                     : Без точки перехода
Параметр матрицы формата                 : Default (H.263)
Идентификатор кодека                     : XVID
Идентификатор кодека/Подсказка           : XviD
Продолжительность                        : 17 м.
Битрейт                                  : 2297 Кбит/сек
Ширина                                   : 640 пикселей
Высота                                   : 480 пикселей
Соотношение сторон                       : 4:3
Частота кадров                           : 25,000 кадров/сек
Цветовое пространство                    : YUV
Субдискретизация насыщенности            : 4:2:0
Битовая глубина                          : 8 бит
Тип развёртки                            : Прогрессивная
Метод сжатия                             : С потерями
Бит/(Пиксели*Кадры)                      : 0.299
Размер потока                            : 288 Мбайт (92%)
Библиотека кодирования                   : Lavc57.27.100
Аудио
Идентификатор                            : 1
Формат                                   : MPEG Audio
Версия формата                           : Version 1
Профиль формата                          : Layer 3
Режим                                    : Joint stereo
Расширение режима                        : MS Stereo
Идентификатор кодека                     : 55
Идентификатор кодека/Подсказка           : MP3
Продолжительность                        : 17 м.
Вид битрейта                             : Постоянный
Битрейт                                  : 192 Кбит/сек
Каналы                                   : 2 канала
Частота                                  : 48,0 КГц
Метод сжатия                             : С потерями
Размер потока                            : 24,1 Мбайт (8%)
Выравнивание                             : Соединение по промежуткам
Продолжительность промежутка             : 24  мс. (0,60 видеокадр)
Время предзагрузки промежутка            : 24  мс.
Библиотека кодирования                   : LAME3.99.5
 
Не забывайте говорить Спасибо. Не уходите с раздачи!   
Торрент: Зарегистрирован [18 фев 2015, 12:40] Скачать торрент
Скачать торрент
[ Размер 177.6 КБ / Просмотров 4 ]
Статус:
Проверен
 
.torrent скачан: 0 раз
Хэш: cbe188d723e20e93f9260eff86802ce1bd0e26d4
Размер: 33.97 ГБ (36 478 840 718 байт)
Стать Автором раздачи
 
 
Раздал: 0 байт
Скачал: 0 байт
Ратио: Inf.
Сообщения: 487468
Зарегистрирован: 17 апр 2014, 13:57


  • Похожие торренты
    Ответы
    Просмотры
    Последнее сообщение

Вернуться в Детские телешоу

Ресурс не предоставляет электронные версии произведений, а занимается лишь коллекционированием и каталогизацией ссылок, присылаемых и публикуемых на форуме нашими читателями. Если вы являетесь правообладателем какого-либо представленного материала и не желаете чтобы ссылка на него находилась в нашем каталоге, свяжитесь с нами и мы незамедлительно удалим её. Файлы для обмена на трекере предоставлены пользователями сайта, и администрация не несёт ответственности за их содержание. Просьба не заливать файлы, защищенные авторскими правами, а также файлы нелегального содержания!
cron