Гости из будущего - Видеоклипы [1999-2005, Pop, DVD]

 
 Статистика раздачи 
Размер: 2.14 ГБ   |  Зарегистрирован: 28 июн 2018, 14:34   |   .torrent скачан: 0 раз
Сидеров: 1  [ 0 байт/сек ]     Личеров: 0  [ 0 байт/сек ]  
  

Гости из будущего - Видеоклипы [1999-2005, Pop, DVD]

Сообщение Nakazhu » 28 июн 2018, 17:50

ГОСТИ ИЗ БУДУЩЕГО
Видеоклипы


Годы выпуска: 1999-2005
Страна: Россия
Жанр: Pop
Качество: DVD
Формат: VOB
Видео кодек: MPEG2
Аудио кодек: AC3, MP2
Источник DVD: R5 «СD Land»
Продолжительность: 00:03:43
Видео: MPEG2 Video 720x576 (4:3) 25fps 6476kbps
Аудио 1: Dolby AC3 48000Hz stereo 192kbps
Аудио 2: MPEG Audio 48000Hz stereo 224kbps
Код: Выделить всё
General
Complete name                  : Гости из будущего - Беги от меня (1999).VOB
Format                         : MPEG-PS
File size                      : 187 MiB
Duration                       : 3 min 43 s
Overall bit rate mode          : Variable
Overall bit rate               : 7 032 kb/s
Video
ID                             : 224 (0xE0)
Format                         : MPEG Video
Format version                 : Version 2
Format profile                 : Main@Main
Format settings, BVOP          : Yes
Format settings, Matrix        : Custom
Format settings, GOP           : Variable
Format settings, picture struc : Frame
Duration                       : 3 min 43 s
Bit rate mode                  : Variable
Bit rate                       : 6 476 kb/s
Maximum bit rate               : 9 800 kb/s
Width                          : 720 pixels
Height                         : 576 pixels
Display aspect ratio           : 4:3
Frame rate                     : 25.000 FPS
Standard                       : PAL
Color space                    : YUV
Chroma subsampling             : 4:2:0
Bit depth                      : 8 bits
Scan type                      : Interlaced
Scan order                     : Top Field First
Compression mode               : Lossy
Bits/(Pixel*Frame)             : 0.625
Time code of first frame       : 00:00:00:00
Time code source               : Group of pictures header
Stream size                    : 172 MiB (92%)
Audio #1
ID                             : 193 (0xC1)
Format                         : MPEG Audio
Format version                 : Version 1
Format profile                 : Layer 2
Duration                       : 3 min 43 s
Bit rate mode                  : Constant
Bit rate                       : 224 kb/s
Channel(s)                     : 2 channels
Sampling rate                  : 48.0 kHz
Compression mode               : Lossy
Stream size                    : 5.97 MiB (3%)
Audio #2
ID                             : 189 (0xBD)-128 (0x80)
Format                         : AC-3
Format/Info                    : Audio Coding 3
Format settings, Endianness    : Big
Muxing mode                    : DVD-Video
Duration                       : 3 min 43 s
Bit rate mode                  : Constant
Bit rate                       : 192 kb/s
Channel(s)                     : 2 channels
Channel positions              : Front: L R
Sampling rate                  : 48.0 kHz
Frame rate                     : 31.250 FPS (1536 SPF)
Bit depth                      : 16 bits
Compression mode               : Lossy
Stream size                    : 5.11 MiB (3%)
Service kind                   : Complete Main
Menu
Продолжительность: 00:03:43
Видео: MPEG2 Video 720x576 (4:3) 25fps 6480kbps
Аудио 1: Dolby AC3 48000Hz stereo 192kbps
Аудио 2: MPEG Audio 48000Hz stereo 224kbps
Код: Выделить всё
General
Complete name                  : Гости из будущего - Нелюбовь (1999).VOB
Format                         : MPEG-PS
File size                      : 187 MiB
Duration                       : 3 min 42 s
Overall bit rate mode          : Variable
Overall bit rate               : 7 036 kb/s
Video
ID                             : 224 (0xE0)
Format                         : MPEG Video
Format version                 : Version 2
Format profile                 : Main@Main
Format settings, BVOP          : Yes
Format settings, Matrix        : Custom
Format settings, GOP           : Variable
Format settings, picture struc : Frame
Duration                       : 3 min 42 s
Bit rate mode                  : Variable
Bit rate                       : 6 480 kb/s
Maximum bit rate               : 9 800 kb/s
Width                          : 720 pixels
Height                         : 576 pixels
Display aspect ratio           : 4:3
Frame rate                     : 25.000 FPS
Standard                       : PAL
Color space                    : YUV
Chroma subsampling             : 4:2:0
Bit depth                      : 8 bits
Scan type                      : Interlaced
Scan order                     : Top Field First
Compression mode               : Lossy
Bits/(Pixel*Frame)             : 0.625
Time code of first frame       : 00:00:00:00
Time code source               : Group of pictures header
Stream size                    : 172 MiB (92%)
Audio #1
ID                             : 193 (0xC1)
Format                         : MPEG Audio
Format version                 : Version 1
Format profile                 : Layer 2
Duration                       : 3 min 42 s
Bit rate mode                  : Constant
Bit rate                       : 224 kb/s
Channel(s)                     : 2 channels
Sampling rate                  : 48.0 kHz
Compression mode               : Lossy
Stream size                    : 5.95 MiB (3%)
Audio #2
ID                             : 189 (0xBD)-128 (0x80)
Format                         : AC-3
Format/Info                    : Audio Coding 3
Format settings, Endianness    : Big
Muxing mode                    : DVD-Video
Duration                       : 3 min 42 s
Bit rate mode                  : Constant
Bit rate                       : 192 kb/s
Channel(s)                     : 2 channels
Channel positions              : Front: L R
Sampling rate                  : 48.0 kHz
Frame rate                     : 31.250 FPS (1536 SPF)
Bit depth                      : 16 bits
Compression mode               : Lossy
Stream size                    : 5.10 MiB (3%)
Service kind                   : Complete Main
Menu
Продолжительность: 00:03:58
Видео: MPEG2 Video 720x576 (4:3) 25fps 6474kbps
Аудио 1: Dolby AC3 48000Hz stereo 192kbps
Аудио 2: MPEG Audio 48000Hz stereo 224kbps
Код: Выделить всё
General
Complete name                  : Гости из будущего - Зима в сердце (1999).VOB
Format                         : MPEG-PS
File size                      : 199 MiB
Duration                       : 3 min 57 s
Overall bit rate mode          : Variable
Overall bit rate               : 7 030 kb/s
Video
ID                             : 224 (0xE0)
Format                         : MPEG Video
Format version                 : Version 2
Format profile                 : Main@Main
Format settings, BVOP          : Yes
Format settings, Matrix        : Custom
Format settings, GOP           : Variable
Format settings, picture struc : Frame
Duration                       : 3 min 57 s
Bit rate mode                  : Variable
Bit rate                       : 6 474 kb/s
Maximum bit rate               : 9 800 kb/s
Width                          : 720 pixels
Height                         : 576 pixels
Display aspect ratio           : 4:3
Frame rate                     : 25.000 FPS
Standard                       : PAL
Color space                    : YUV
Chroma subsampling             : 4:2:0
Bit depth                      : 8 bits
Scan type                      : Interlaced
Scan order                     : Top Field First
Compression mode               : Lossy
Bits/(Pixel*Frame)             : 0.624
Time code of first frame       : 00:00:00:00
Time code source               : Group of pictures header
GOP, Open/Closed               : Open
GOP, Open/Closed of first fram : Closed
Stream size                    : 183 MiB (92%)
Audio #1
ID                             : 193 (0xC1)
Format                         : MPEG Audio
Format version                 : Version 1
Format profile                 : Layer 2
Duration                       : 3 min 57 s
Bit rate mode                  : Constant
Bit rate                       : 224 kb/s
Channel(s)                     : 2 channels
Sampling rate                  : 48.0 kHz
Compression mode               : Lossy
Stream size                    : 6.35 MiB (3%)
Audio #2
ID                             : 189 (0xBD)-128 (0x80)
Format                         : AC-3
Format/Info                    : Audio Coding 3
Format settings, Endianness    : Big
Muxing mode                    : DVD-Video
Duration                       : 3 min 57 s
Bit rate mode                  : Constant
Bit rate                       : 192 kb/s
Channel(s)                     : 2 channels
Channel positions              : Front: L R
Sampling rate                  : 48.0 kHz
Frame rate                     : 31.250 FPS (1536 SPF)
Bit depth                      : 16 bits
Compression mode               : Lossy
Stream size                    : 5.44 MiB (3%)
Service kind                   : Complete Main
Menu
Продолжительность: 00:05:05
Видео: MPEG2 Video 720x576 (4:3) 25fps 6480kbps
Аудио 1: Dolby AC3 48000Hz stereo 192kbps
Аудио 2: MPEG Audio 48000Hz stereo 224kbps
Код: Выделить всё
General
Complete name                  : Гости из будущего - Игры (2000).VOB
Format                         : MPEG-PS
File size                      : 256 MiB
Duration                       : 5 min 5 s
Overall bit rate mode          : Variable
Overall bit rate               : 7 036 kb/s
Video
ID                             : 224 (0xE0)
Format                         : MPEG Video
Format version                 : Version 2
Format profile                 : Main@Main
Format settings, BVOP          : Yes
Format settings, Matrix        : Custom
Format settings, GOP           : Variable
Format settings, picture struc : Frame
Duration                       : 5 min 5 s
Bit rate mode                  : Variable
Bit rate                       : 6 480 kb/s
Maximum bit rate               : 9 800 kb/s
Width                          : 720 pixels
Height                         : 576 pixels
Display aspect ratio           : 4:3
Frame rate                     : 25.000 FPS
Standard                       : PAL
Color space                    : YUV
Chroma subsampling             : 4:2:0
Bit depth                      : 8 bits
Scan type                      : Interlaced
Scan order                     : Top Field First
Compression mode               : Lossy
Bits/(Pixel*Frame)             : 0.625
Time code of first frame       : 00:00:00:00
Time code source               : Group of pictures header
Stream size                    : 236 MiB (92%)
Audio #1
ID                             : 193 (0xC1)
Format                         : MPEG Audio
Format version                 : Version 1
Format profile                 : Layer 2
Duration                       : 5 min 5 s
Bit rate mode                  : Constant
Bit rate                       : 224 kb/s
Channel(s)                     : 2 channels
Sampling rate                  : 48.0 kHz
Compression mode               : Lossy
Stream size                    : 8.16 MiB (3%)
Audio #2
ID                             : 189 (0xBD)-128 (0x80)
Format                         : AC-3
Format/Info                    : Audio Coding 3
Format settings, Endianness    : Big
Muxing mode                    : DVD-Video
Duration                       : 5 min 5 s
Bit rate mode                  : Constant
Bit rate                       : 192 kb/s
Channel(s)                     : 2 channels
Channel positions              : Front: L R
Sampling rate                  : 48.0 kHz
Frame rate                     : 31.250 FPS (1536 SPF)
Bit depth                      : 16 bits
Compression mode               : Lossy
Stream size                    : 6.99 MiB (3%)
Service kind                   : Complete Main
Menu
Продолжительность: 00:04:10
Видео: MPEG2 Video 720x576 (4:3) 25fps 6491kbps
Аудио 1: Dolby AC3 48000Hz stereo 192kbps
Аудио 2: MPEG Audio 48000Hz stereo 224kbps
Код: Выделить всё
General
Complete name                  : Гости из будущего - Это сильнее меня (2000).VOB
Format                         : MPEG-PS
File size                      : 215 MiB
Duration                       : 4 min 9 s
Overall bit rate mode          : Variable
Overall bit rate               : 7 211 kb/s
Video
ID                             : 224 (0xE0)
Format                         : MPEG Video
Format version                 : Version 2
Format profile                 : Main@Main
Format settings, BVOP          : Yes
Format settings, Matrix        : Custom
Format settings, GOP           : M=3, N=15
Format settings, picture struc : Frame
Duration                       : 4 min 9 s
Bit rate mode                  : Variable
Bit rate                       : 6 491 kb/s
Maximum bit rate               : 9 800 kb/s
Width                          : 720 pixels
Height                         : 576 pixels
Display aspect ratio           : 4:3
Frame rate                     : 25.000 FPS
Standard                       : PAL
Color space                    : YUV
Chroma subsampling             : 4:2:0
Bit depth                      : 8 bits
Scan type                      : Interlaced
Scan order                     : Top Field First
Compression mode               : Lossy
Bits/(Pixel*Frame)             : 0.626
Time code of first frame       : 00:00:00:00
Time code source               : Group of pictures header
GOP, Open/Closed               : Closed
Stream size                    : 193 MiB (90%)
Audio #1
ID                             : 189 (0xBD)-128 (0x80)
Format                         : AC-3
Format/Info                    : Audio Coding 3
Format settings, Endianness    : Big
Muxing mode                    : DVD-Video
Duration                       : 4 min 9 s
Bit rate mode                  : Constant
Bit rate                       : 384 kb/s
Channel(s)                     : 6 channels
Channel positions              : Front: L C R, Side: L R, LFE
Sampling rate                  : 48.0 kHz
Frame rate                     : 31.250 FPS (1536 SPF)
Bit depth                      : 16 bits
Compression mode               : Lossy
Stream size                    : 11.4 MiB (5%)
Service kind                   : Complete Main
Audio #2
ID                             : 189 (0xBD)-129 (0x81)
Format                         : AC-3
Format/Info                    : Audio Coding 3
Format settings, Endianness    : Big
Muxing mode                    : DVD-Video
Duration                       : 4 min 9 s
Bit rate mode                  : Constant
Bit rate                       : 192 kb/s
Channel(s)                     : 2 channels
Channel positions              : Front: L R
Sampling rate                  : 48.0 kHz
Frame rate                     : 31.250 FPS (1536 SPF)
Bit depth                      : 16 bits
Compression mode               : Lossy
Stream size                    : 5.72 MiB (3%)
Service kind                   : Complete Main
Menu
Продолжительность: 00:04:01
Видео: MPEG2 Video 720x576 (4:3) 25fps 6478kbps
Аудио 1: Dolby AC3 48000Hz stereo 192kbps
Аудио 2: MPEG Audio 48000Hz stereo 224kbps
Код: Выделить всё
General
Complete name                  : Гости из будущего - Так отважно (2001).VOB
Format                         : MPEG-PS
File size                      : 202 MiB
Duration                       : 4 min 1 s
Overall bit rate mode          : Variable
Overall bit rate               : 7 034 kb/s
Video
ID                             : 224 (0xE0)
Format                         : MPEG Video
Format version                 : Version 2
Format profile                 : Main@Main
Format settings, BVOP          : Yes
Format settings, Matrix        : Custom
Format settings, GOP           : M=3, N=15
Format settings, picture struc : Frame
Duration                       : 4 min 1 s
Bit rate mode                  : Variable
Bit rate                       : 6 478 kb/s
Maximum bit rate               : 9 800 kb/s
Width                          : 720 pixels
Height                         : 576 pixels
Display aspect ratio           : 4:3
Frame rate                     : 25.000 FPS
Standard                       : PAL
Color space                    : YUV
Chroma subsampling             : 4:2:0
Bit depth                      : 8 bits
Scan type                      : Interlaced
Scan order                     : Top Field First
Compression mode               : Lossy
Bits/(Pixel*Frame)             : 0.625
Time code of first frame       : 00:00:00:00
Time code source               : Group of pictures header
GOP, Open/Closed               : Open
GOP, Open/Closed of first fram : Closed
Stream size                    : 186 MiB (92%)
Audio #1
ID                             : 193 (0xC1)
Format                         : MPEG Audio
Format version                 : Version 1
Format profile                 : Layer 2
Duration                       : 4 min 1 s
Bit rate mode                  : Constant
Bit rate                       : 224 kb/s
Channel(s)                     : 2 channels
Sampling rate                  : 48.0 kHz
Compression mode               : Lossy
Stream size                    : 6.44 MiB (3%)
Audio #2
ID                             : 189 (0xBD)-128 (0x80)
Format                         : AC-3
Format/Info                    : Audio Coding 3
Format settings, Endianness    : Big
Muxing mode                    : DVD-Video
Duration                       : 4 min 1 s
Bit rate mode                  : Constant
Bit rate                       : 192 kb/s
Channel(s)                     : 2 channels
Channel positions              : Front: L R
Sampling rate                  : 48.0 kHz
Frame rate                     : 31.250 FPS (1536 SPF)
Bit depth                      : 16 bits
Compression mode               : Lossy
Stream size                    : 5.52 MiB (3%)
Service kind                   : Complete Main
Menu
Продолжительность: 00:03:34
Видео: MPEG2 Video 720x576 (4:3) 25fps 6480kbps
Аудио 1: Dolby AC3 48000Hz stereo 192kbps
Аудио 2: MPEG Audio 48000Hz stereo 224kbps
Код: Выделить всё
General
Complete name                  : Гости из будущего - Он чужой (2002).VOB
Format                         : MPEG-PS
File size                      : 179 MiB
Duration                       : 3 min 33 s
Overall bit rate mode          : Variable
Overall bit rate               : 7 036 kb/s
Video
ID                             : 224 (0xE0)
Format                         : MPEG Video
Format version                 : Version 2
Format profile                 : Main@Main
Format settings, BVOP          : Yes
Format settings, Matrix        : Custom
Format settings, GOP           : M=3, N=15
Format settings, picture struc : Frame
Duration                       : 3 min 33 s
Bit rate mode                  : Variable
Bit rate                       : 6 480 kb/s
Maximum bit rate               : 9 800 kb/s
Width                          : 720 pixels
Height                         : 576 pixels
Display aspect ratio           : 4:3
Frame rate                     : 25.000 FPS
Standard                       : PAL
Color space                    : YUV
Chroma subsampling             : 4:2:0
Bit depth                      : 8 bits
Scan type                      : Interlaced
Scan order                     : Top Field First
Compression mode               : Lossy
Bits/(Pixel*Frame)             : 0.625
Time code of first frame       : 00:00:00:00
Time code source               : Group of pictures header
GOP, Open/Closed               : Open
GOP, Open/Closed of first fram : Closed
Stream size                    : 165 MiB (92%)
Audio #1
ID                             : 193 (0xC1)
Format                         : MPEG Audio
Format version                 : Version 1
Format profile                 : Layer 2
Duration                       : 3 min 33 s
Bit rate mode                  : Constant
Bit rate                       : 224 kb/s
Channel(s)                     : 2 channels
Sampling rate                  : 48.0 kHz
Compression mode               : Lossy
Stream size                    : 5.70 MiB (3%)
Audio #2
ID                             : 189 (0xBD)-128 (0x80)
Format                         : AC-3
Format/Info                    : Audio Coding 3
Format settings, Endianness    : Big
Muxing mode                    : DVD-Video
Duration                       : 3 min 33 s
Bit rate mode                  : Constant
Bit rate                       : 192 kb/s
Channel(s)                     : 2 channels
Channel positions              : Front: L R
Sampling rate                  : 48.0 kHz
Frame rate                     : 31.250 FPS (1536 SPF)
Bit depth                      : 16 bits
Compression mode               : Lossy
Stream size                    : 4.89 MiB (3%)
Service kind                   : Complete Main
Menu
Продолжительность: 00:03:24
Видео: MPEG2 Video 720x576 (4:3) 25fps 6483kbps
Аудио 1: Dolby AC3 48000Hz stereo 192kbps
Аудио 2: MPEG Audio 48000Hz stereo 224kbps
Код: Выделить всё
General
Complete name                  : Гости из будущего - Метко (2002).VOB
Format                         : MPEG-PS
File size                      : 171 MiB
Duration                       : 3 min 24 s
Overall bit rate mode          : Variable
Overall bit rate               : 7 039 kb/s
Video
ID                             : 224 (0xE0)
Format                         : MPEG Video
Format version                 : Version 2
Format profile                 : Main@Main
Format settings, BVOP          : Yes
Format settings, Matrix        : Custom
Format settings, GOP           : Variable
Format settings, picture struc : Frame
Duration                       : 3 min 24 s
Bit rate mode                  : Variable
Bit rate                       : 6 483 kb/s
Maximum bit rate               : 9 800 kb/s
Width                          : 720 pixels
Height                         : 576 pixels
Display aspect ratio           : 4:3
Frame rate                     : 25.000 FPS
Standard                       : PAL
Color space                    : YUV
Chroma subsampling             : 4:2:0
Bit depth                      : 8 bits
Scan type                      : Interlaced
Scan order                     : Top Field First
Compression mode               : Lossy
Bits/(Pixel*Frame)             : 0.625
Time code of first frame       : 00:00:00:00
Time code source               : Group of pictures header
Stream size                    : 158 MiB (92%)
Audio #1
ID                             : 193 (0xC1)
Format                         : MPEG Audio
Format version                 : Version 1
Format profile                 : Layer 2
Duration                       : 3 min 24 s
Bit rate mode                  : Constant
Bit rate                       : 224 kb/s
Channel(s)                     : 2 channels
Sampling rate                  : 48.0 kHz
Compression mode               : Lossy
Stream size                    : 5.45 MiB (3%)
Audio #2
ID                             : 189 (0xBD)-128 (0x80)
Format                         : AC-3
Format/Info                    : Audio Coding 3
Format settings, Endianness    : Big
Muxing mode                    : DVD-Video
Duration                       : 3 min 24 s
Bit rate mode                  : Constant
Bit rate                       : 192 kb/s
Channel(s)                     : 2 channels
Channel positions              : Front: L R
Sampling rate                  : 48.0 kHz
Frame rate                     : 31.250 FPS (1536 SPF)
Bit depth                      : 16 bits
Compression mode               : Lossy
Stream size                    : 4.67 MiB (3%)
Service kind                   : Complete Main
Menu
Продолжительность: 00:03:31
Видео: MPEG2 Video 720x576 (4:3) 25fps 6485kbps
Аудио 1: Dolby AC3 48000Hz stereo 192kbps
Аудио 2: MPEG Audio 48000Hz stereo 224kbps
Код: Выделить всё
General
Complete name                  : Гости из будущего - Почему ты (2003).VOB
Format                         : MPEG-PS
File size                      : 177 MiB
Duration                       : 3 min 30 s
Overall bit rate mode          : Variable
Overall bit rate               : 7 041 kb/s
Video
ID                             : 224 (0xE0)
Format                         : MPEG Video
Format version                 : Version 2
Format profile                 : Main@Main
Format settings, BVOP          : Yes
Format settings, Matrix        : Custom
Format settings, GOP           : M=3, N=15
Format settings, picture struc : Frame
Duration                       : 3 min 30 s
Bit rate mode                  : Variable
Bit rate                       : 6 485 kb/s
Maximum bit rate               : 9 800 kb/s
Width                          : 720 pixels
Height                         : 576 pixels
Display aspect ratio           : 4:3
Frame rate                     : 25.000 FPS
Standard                       : PAL
Color space                    : YUV
Chroma subsampling             : 4:2:0
Bit depth                      : 8 bits
Scan type                      : Interlaced
Scan order                     : Top Field First
Compression mode               : Lossy
Bits/(Pixel*Frame)             : 0.625
Time code of first frame       : 00:00:00:00
Time code source               : Group of pictures header
GOP, Open/Closed               : Open
GOP, Open/Closed of first fram : Closed
Stream size                    : 163 MiB (92%)
Audio #1
ID                             : 193 (0xC1)
Format                         : MPEG Audio
Format version                 : Version 1
Format profile                 : Layer 2
Duration                       : 3 min 30 s
Bit rate mode                  : Constant
Bit rate                       : 224 kb/s
Channel(s)                     : 2 channels
Sampling rate                  : 48.0 kHz
Compression mode               : Lossy
Stream size                    : 5.63 MiB (3%)
Audio #2
ID                             : 189 (0xBD)-128 (0x80)
Format                         : AC-3
Format/Info                    : Audio Coding 3
Format settings, Endianness    : Big
Muxing mode                    : DVD-Video
Duration                       : 3 min 30 s
Bit rate mode                  : Constant
Bit rate                       : 192 kb/s
Channel(s)                     : 2 channels
Channel positions              : Front: L R
Sampling rate                  : 48.0 kHz
Frame rate                     : 31.250 FPS (1536 SPF)
Bit depth                      : 16 bits
Compression mode               : Lossy
Stream size                    : 4.83 MiB (3%)
Service kind                   : Complete Main
Menu
Продолжительность: 00:03:39
Видео: MPEG2 Video 720x576 (4:3) 25fps 6486kbps
Аудио 1: Dolby AC3 48000Hz stereo 192kbps
Аудио 2: MPEG Audio 48000Hz stereo 224kbps
Код: Выделить всё
General
Complete name                  : Гости из будущего - Грустные сказки (2004).VOB
Format                         : MPEG-PS
File size                      : 184 MiB
Duration                       : 3 min 38 s
Overall bit rate mode          : Variable
Overall bit rate               : 7 042 kb/s
Video
ID                             : 224 (0xE0)
Format                         : MPEG Video
Format version                 : Version 2
Format profile                 : Main@Main
Format settings, BVOP          : Yes
Format settings, Matrix        : Custom
Format settings, GOP           : Variable
Format settings, picture struc : Frame
Duration                       : 3 min 38 s
Bit rate mode                  : Variable
Bit rate                       : 6 486 kb/s
Maximum bit rate               : 9 800 kb/s
Width                          : 720 pixels
Height                         : 576 pixels
Display aspect ratio           : 4:3
Frame rate                     : 25.000 FPS
Standard                       : PAL
Color space                    : YUV
Chroma subsampling             : 4:2:0
Bit depth                      : 8 bits
Scan type                      : Interlaced
Scan order                     : Top Field First
Compression mode               : Lossy
Bits/(Pixel*Frame)             : 0.626
Time code of first frame       : 00:00:00:00
Time code source               : Group of pictures header
Stream size                    : 169 MiB (92%)
Audio #1
ID                             : 193 (0xC1)
Format                         : MPEG Audio
Format version                 : Version 1
Format profile                 : Layer 2
Duration                       : 3 min 38 s
Bit rate mode                  : Constant
Bit rate                       : 224 kb/s
Channel(s)                     : 2 channels
Sampling rate                  : 48.0 kHz
Compression mode               : Lossy
Stream size                    : 5.84 MiB (3%)
Audio #2
ID                             : 189 (0xBD)-128 (0x80)
Format                         : AC-3
Format/Info                    : Audio Coding 3
Format settings, Endianness    : Big
Muxing mode                    : DVD-Video
Duration                       : 3 min 38 s
Bit rate mode                  : Constant
Bit rate                       : 192 kb/s
Channel(s)                     : 2 channels
Channel positions              : Front: L R
Sampling rate                  : 48.0 kHz
Frame rate                     : 31.250 FPS (1536 SPF)
Bit depth                      : 16 bits
Compression mode               : Lossy
Stream size                    : 5.01 MiB (3%)
Service kind                   : Complete Main
Menu
Продолжительность: 00:04:12
Видео: MPEG2 Video 720x576 (4:3) 25fps 7175kbps
Аудио 1: Dolby AC3 48000Hz stereo 192kbps
Аудио 2: MPEG Audio 48000Hz stereo 224kbps
Код: Выделить всё
General
Complete name                  : Гости из будущего - Лучшее в тебе (2005).VOB
Format                         : MPEG-PS
File size                      : 236 MiB
Duration                       : 4 min 12 s
Overall bit rate mode          : Variable
Overall bit rate               : 7 843 kb/s
Video
ID                             : 224 (0xE0)
Format                         : MPEG Video
Format version                 : Version 2
Format profile                 : Main@Main
Format settings, BVOP          : Yes
Format settings, Matrix        : Custom
Format settings, GOP           : Variable
Duration                       : 4 min 12 s
Bit rate mode                  : Variable
Bit rate                       : 7 175 kb/s
Maximum bit rate               : 9 800 kb/s
Width                          : 720 pixels
Height                         : 576 pixels
Display aspect ratio           : 4:3
Frame rate                     : 25.000 FPS
Standard                       : PAL
Color space                    : YUV
Chroma subsampling             : 4:2:0
Bit depth                      : 8 bits
Scan type                      : Progressive
Scan order                     : Top Field First
Compression mode               : Lossy
Bits/(Pixel*Frame)             : 0.692
Time code of first frame       : 00:00:00:00
Time code source               : Group of pictures header
GOP, Open/Closed               : Closed
Stream size                    : 216 MiB (91%)
Audio #1
ID                             : 189 (0xBD)-128 (0x80)
Format                         : AC-3
Format/Info                    : Audio Coding 3
Format settings, Endianness    : Big
Muxing mode                    : DVD-Video
Duration                       : 4 min 12 s
Bit rate mode                  : Constant
Bit rate                       : 320 kb/s
Channel(s)                     : 6 channels
Channel positions              : Front: L C R, Side: L R, LFE
Sampling rate                  : 48.0 kHz
Frame rate                     : 31.250 FPS (1536 SPF)
Bit depth                      : 16 bits
Compression mode               : Lossy
Stream size                    : 9.63 MiB (4%)
Service kind                   : Complete Main
Audio #2
ID                             : 189 (0xBD)-129 (0x81)
Format                         : AC-3
Format/Info                    : Audio Coding 3
Format settings, Endianness    : Big
Muxing mode                    : DVD-Video
Duration                       : 4 min 12 s
Bit rate mode                  : Constant
Bit rate                       : 192 kb/s
Channel(s)                     : 2 channels
Channel positions              : Front: L R
Sampling rate                  : 48.0 kHz
Frame rate                     : 31.250 FPS (1536 SPF)
Bit depth                      : 16 bits
Compression mode               : Lossy
Stream size                    : 5.78 MiB (2%)
Service kind                   : Complete Main
Menu
 
Не забывайте говорить Спасибо. Не уходите с раздачи!   
Торрент: Зарегистрирован [28 июн 2018, 14:34] Скачать торрент
Скачать торрент
[ Размер 12.21 КБ / Просмотров 3 ]
Статус:
Проверен
 
.torrent скачан: 0 раз
Хэш: ee18e1cd6646999a65d0b8119fb4afa92aa759c0
Размер: 2.14 ГБ (2 299 832 320 байт)
Стать Автором раздачи
 
 
Раздал: 0 байт
Скачал: 0 байт
Ратио: Inf.
Сообщения: 487468
Зарегистрирован: 17 апр 2014, 13:57


  • Похожие торренты
    Ответы
    Просмотры
    Последнее сообщение

Вернуться в Отечественная поп-музыка (Видео)

Ресурс не предоставляет электронные версии произведений, а занимается лишь коллекционированием и каталогизацией ссылок, присылаемых и публикуемых на форуме нашими читателями. Если вы являетесь правообладателем какого-либо представленного материала и не желаете чтобы ссылка на него находилась в нашем каталоге, свяжитесь с нами и мы незамедлительно удалим её. Файлы для обмена на трекере предоставлены пользователями сайта, и администрация не несёт ответственности за их содержание. Просьба не заливать файлы, защищенные авторскими правами, а также файлы нелегального содержания!
cron