Драгонзакура / Dragonzakura / Dragon Zakura [04 из 11] [2005, драма, комедия, школа, HDTVRip] [RAW] [720p] [DVO, Original + Rus Subs]

 
 Статистика раздачи 
Размер: 5.2 ГБ   |  Зарегистрирован: 18 фев 2018, 12:26   |   .torrent скачан: 0 раз
Сидеров: 1  [ 0 байт/сек ]     Личеров: 0  [ 0 байт/сек ]  
  

Драгонзакура / Dragonzakura / Dragon Zakura [04 из 11] [2005, драма, комедия, школа, HDTVRip] [RAW] [720p] [DVO, Original + Rus Subs]

Сообщение Nakazhu » 28 июн 2018, 17:35

Драгонзакура / Dragonzakura / ドラゴン桜

Страна: Япония
Год выпуска: 2005
Жанр: драма, комедия, школа
Продолжительность: 11 серии по ~ 45-50 мин.
Режиссер: Комацу Такаши

В ролях:
Абэ Хироши
Хасэгава Кёко
Ямашита Томохиса
Нагасава Масами
Накао Акиёши
Койкэ Тэппэй и другие

Перевод: Двухголосое Закадровое Озвучивание
Описание: "Я назвал вас всех неудачниками, потому что вас будут обманывать. В обществе существуют правила, и вы должны следовать им. И все эти правила установлены умными людьми. И что же это значит? Это правила умных людей, и умные люди умеют ими пользоваться. Дураки этих правил не понимают, и потому проигрывают. Например, налоги, зарплата, страховки, назначения – умные люди будут и дальше усложнять эти понятия. Глупым остаётся лишь пытаться в них разобраться. Вы все считаете, что думать – это скучно. Поэтому вас всю жизнь будут водить за нос, и вы дорого поплатитесь за это. Умные люди умело пользуются ситуацией, в отличие от дураков. Так уж устроено наше общество. Поэтому, если не хотите быть обманутыми, если не желаете проигрывать, то нужно учиться! Если вы ничего не знаете и не ждёте ничего хорошего, вас ждут сплошные разочарования. Если не хотите, чтобы вас всю жизнь обманывали – учитесь!" © Сакураги Кенджи, Драгонзакура.
Быть глупым - не приговор, быть глупым - выбор. В наше время, если ты тупой - ты слабак. Но это поправимо. Отбросив лень, нужно просто учиться и развиваться - становиться сильнее. Это может каждый. Стать умнее может каждый!
© Вадим Химеров, Проект «Во́льТворц»

Озвучивание: Проект «Во́льТворц»
Куратор проекта: Вадим Химеров
Текст читали:
● Вадим Химеров
● Надежда Демиденко

Тайминг:
● Вадим Химеров (мужские реплики)
● Надежда Демиденко (женские реплики)

Звукорежиссура: Вадим Химеров
Контроль качества: Вадим Химеров
Сэмпл
Перевод: ФСГ "Samjogo Subbing Squad"
Перевод: Murasaki
Редактор: Valent
Переводчик с японского: Nasy
Неотключаемые субтитры: Без хардсаба
Качество видео: HDTVRip
Формат: MKV
Видео: H264, 1280x720, 29.97fps, ~3630 Kbps
Аудио 1: AC-3, Stereo, 48.0 kHz, 192 kbps, Язык Русский (в составе контейнера)
Аудио 2: AC-3, Stereo, 48.0 kHz, 141 Kbps, Язык Японский (в составе контейнера)
Субтитры: Язык Русский (в составе контейнера)
General
Unique ID : 255167649381237979868649968338545672842 (0xBFF7806DFBE8A0169DDBB98E2034028A)
Complete name : D:\Вадим Химеров\Проект Вольтворц\Релизы\Кино\[Во́льТворц] Драгонзакура (Dragonzakura) [DVO]\[Во́льТворц] Dragonzakura - 01 [HDTV H264 720p].mkv
Format : Matroska
Format version : Version 4 / Version 2
File size : 1.30 GiB
Duration : 46 min 49 s
Overall bit rate : 3 966 kb/s
Encoded date : UTC 2018-02-18 05:38:54
Writing application : mkvmerge v18.0.0 ('Apricity') 64-bit
Writing library : libebml v1.3.5 + libmatroska v1.4.8
Video
ID : 1
Format : AVC
Format/Info : Advanced Video Codec
Format profile : High@L4.1
Format settings : CABAC / 9 Ref Frames
Format settings, CABAC : Yes
Format settings, ReFrames : 9 frames
Codec ID : V_MPEG4/ISO/AVC
Duration : 46 min 49 s
Bit rate : 3 630 kb/s
Width : 1 280 pixels
Height : 720 pixels
Display aspect ratio : 16:9
Frame rate mode : Constant
Frame rate : 29.970 (30000/1001) FPS
Color space : YUV
Chroma subsampling : 4:2:0
Bit depth : 8 bits
Scan type : Progressive
Bits/(Pixel*Frame) : 0.131
Stream size : 1.19 GiB (92%)
Title : Dragonzakura
Writing library : x264 core 133 r2334 a3ac64b
Encoding settings : cabac=1 / ref=9 / deblock=1:-2:-2 / analyse=0x3:0x133 / me=umh / subme=10 / psy=1 / psy_rd=1.00:0.15 / mixed_ref=1 / me_range=48 / chroma_me=1 / trellis=2 / 8x8dct=1 / cqm=0 / deadzone=21,11 / fast_pskip=0 / chroma_qp_offset=-3 / threads=12 / lookahead_threads=2 / sliced_threads=0 / nr=0 / decimate=1 / interlaced=0 / bluray_compat=0 / constrained_intra=0 / bframes=8 / b_pyramid=2 / b_adapt=2 / b_bias=0 / direct=3 / weightb=1 / open_gop=0 / weightp=2 / keyint=300 / keyint_min=29 / scenecut=40 / intra_refresh=0 / rc_lookahead=60 / rc=crf / mbtree=1 / crf=18.5 / qcomp=0.60 / qpmin=0 / qpmax=69 / qpstep=4 / ip_ratio=1.40 / aq=1:1.00
Language : Japanese
Default : Yes
Forced : No
Audio #1
ID : 2
Format : AC-3
Format/Info : Audio Coding 3
Codec ID : A_AC3
Duration : 46 min 49 s
Bit rate mode : Constant
Bit rate : 192 kb/s
Channel(s) : 2 channels
Channel positions : Front: L R
Sampling rate : 48.0 kHz
Frame rate : 31.250 FPS (1536 SPF)
Bit depth : 16 bits
Compression mode : Lossy
Stream size : 64.3 MiB (5%)
Title : ВольТворц
Language : Russian
Service kind : Complete Main
Default : Yes
Forced : No
Audio #2
ID : 3
Format : AAC
Format/Info : Advanced Audio Codec
Format profile : LC
Codec ID : A_AAC-2
Duration : 46 min 49 s
Bit rate : 141 kb/s
Channel(s) : 2 channels
Channel positions : Front: L R
Sampling rate : 48.0 kHz
Frame rate : 46.875 FPS (1024 SPF)
Compression mode : Lossy
Stream size : 47.1 MiB (4%)
Title : Original
Language : Japanese
Default : No
Forced : No
Text
ID : 4
Format : ASS
Codec ID : S_TEXT/ASS
Codec ID/Info : Advanced Sub Station Alpha
Duration : 46 min 24 s
Bit rate : 165 b/s
Count of elements : 772
Compression mode : Lossless
Stream size : 56.1 KiB (0%)
Title : Samjogo Subbing Squad
Language : Russian
Default : No
Forced : No
http://rutracker.org/forum/viewtopic.php?t=5059568 - наличие русской озвучки

Добавлена 4-я серия. Просьба перекачать торрент.
 
Не забывайте говорить Спасибо. Не уходите с раздачи!   
Торрент: Зарегистрирован [18 фев 2018, 12:26] Скачать торрент
Скачать торрент
[ Размер 13.98 КБ / Просмотров 2 ]
Статус:
Проверен
 
.torrent скачан: 0 раз
Хэш: 40743681551510f19bc81ea17045242a93ded93c
Размер: 5.2 ГБ (5 584 898 018 байт)
Стать Автором раздачи
 
 
Раздал: 0 байт
Скачал: 0 байт
Ратио: Inf.
Сообщения: 487468
Зарегистрирован: 17 апр 2014, 13:57


  • Похожие торренты
    Ответы
    Просмотры
    Последнее сообщение

Вернуться в Японские сериалы с озвучкой

Ресурс не предоставляет электронные версии произведений, а занимается лишь коллекционированием и каталогизацией ссылок, присылаемых и публикуемых на форуме нашими читателями. Если вы являетесь правообладателем какого-либо представленного материала и не желаете чтобы ссылка на него находилась в нашем каталоге, свяжитесь с нами и мы незамедлительно удалим её. Файлы для обмена на трекере предоставлены пользователями сайта, и администрация не несёт ответственности за их содержание. Просьба не заливать файлы, защищенные авторскими правами, а также файлы нелегального содержания!
cron