(Psybient | Ambient | Downtempo) [WEB] Mystic Crock - Ten - 2018, FLAC (tracks), lossless

 
 Статистика раздачи 
Размер: 869.02 МБ   |  Зарегистрирован: 28 июн 2018, 07:51   |   .torrent скачан: 0 раз
Сидеров: 1  [ 0 байт/сек ]     Личеров: 0  [ 0 байт/сек ]  
  

(Psybient | Ambient | Downtempo) [WEB] Mystic Crock - Ten - 2018, FLAC (tracks), lossless

Сообщение Nakazhu » 28 июн 2018, 11:08

Mystic Crock - Ten





• Жанр: Psybient | Ambient | Downtempo
• Носитель: WEB
• Год издания: 2018
• Издатель (лейбл) Nomad Records
• Страна исполнителя (группы): Germany
• Аудиокодек: FLAC (*.flac)
• Тип рипа: tracks
• Продолжительность: 02:34:05
• Источник (релизер): Vilator ®
• WEB релиз: bandcamp
• Наличие сканов: front

01 - Natural Correlation (00:09:06)
02 - Whispering Noise (00:09:14)
03 - Blabla (00:08:27)
04 - Stardust (00:09:33)
05 - Dark Cave (00:07:43)
06 - Silent Reflections (00:08:27)
07 - Dub Deliberate (00:08:34)
08 - Ten (00:09:01)
09 - Twin Dreams (00:09:13)
10 - Ten (Continuous Mix) (01:14:42)

foobar2000 1.3.9 / Замер динамического диапазона (DR) 1.1.1
Дата отчёта: 2018-06-28 10:41:09
--------------------------------------------------------------------------------
Анализ: Mystic Crock / Ten
--------------------------------------------------------------------------------
DR Пики RMS Продолжительность трека
--------------------------------------------------------------------------------
DR6 0.00 дБ -8.22 дБ 9:06 01-Natural Correlation
DR8 0.00 дБ -9.89 дБ 9:15 02-Whispering Noise
DR5 0.00 дБ -6.49 дБ 8:28 03-BlaBla
DR6 0.00 дБ -7.84 дБ 9:33 04-Stardust
DR7 0.00 дБ -8.27 дБ 7:43 05-Dark Cave
DR5 0.00 дБ -7.12 дБ 8:28 06-Silent Reflections
DR5 0.00 дБ -6.93 дБ 8:34 07-Dub Deliberate
DR8 0.00 дБ -9.53 дБ 9:02 08-Ten
DR7 0.00 дБ -9.32 дБ 9:14 09-Twin Dreams
DR6 0.00 дБ -7.80 дБ 1:14:42 10-Ten (Continuous Mix)
--------------------------------------------------------------------------------
Количество треков: 10
Реальные значения DR: DR6
Частота: 44100 Гц
Каналов: 2
Разрядность: 16
Битрейт: 807 кбит/с
Кодек: FLAC
================================================================================

Код: Выделить всё
-----------------------
DON'T MODIFY THIS FILE
-----------------------
PERFORMER: auCDtect Task Manager, ver. 1.5.1RC3 build 1.5.1.4
Copyright (c) 2008-2010 y-soft. All rights reserved
[url=http://y-soft.org]http://y-soft.org[/url]
ANALYZER: auCDtect: CD records authenticity detector, version 0.8.2
Copyright (c) 2004 Oleg Berngardt. All rights reserved.
Copyright (c) 2004 Alexander Djourik. All rights reserved.
FILE: 10 - Ten (Continuous Mix).flac
  Size: 452106978 Hash: 97448ED092A47F0A00515A551F99BC2B Accuracy: -m0
  Conclusion: CDDA 100%
  Signature: EF465BD5F8097233C84F676A587294DC1B6C5703
FILE: 09 - Twin Dreams.flac
  Size: 50229291 Hash: 16DE881F49914D568960D3C3562F385C Accuracy: -m0
  Conclusion: CDDA 100%
  Signature: 3B1EE266BF11F214A61B163BA4FEC4F1EC06696F
FILE: 08 - Ten.flac
  Size: 50631284 Hash: 7CD9B26D0683784374847E058BFB94CA Accuracy: -m0
  Conclusion: CDDA 100%
  Signature: 3AE12BDE6D311A730663C05D809ED2BEC9342120
FILE: 07 - Dub Deliberate.flac
  Size: 44972784 Hash: 1E412FDD973C4AEA254CECBF8D2E0848 Accuracy: -m0
  Conclusion: CDDA 100%
  Signature: 9A0FC500F874748AAB9C15820D4317B53E0A3849
FILE: 06 - Silent Reflections.flac
  Size: 52338770 Hash: 43BD49C9C626A305A08B681A8EE406F8 Accuracy: -m0
  Conclusion: CDDA 99%
  Signature: 05023FDC07792ED90513C041FD3EBC592848B516
FILE: 05 - Dark Cave.flac
  Size: 45250190 Hash: E3F6329A02A40796669FA0C94D680E39 Accuracy: -m0
  Conclusion: CDDA 100%
  Signature: AA1DCE374A14B8825BC334CE6AAAB3454859D722
FILE: 04 - Stardust.flac
  Size: 61533230 Hash: 19103181139B7B1C5DC54D18B3922ED1 Accuracy: -m0
  Conclusion: MPEG 95%
  Signature: 2B9AC41EF70F1EA9EC7D1786DF8A668063502C73
FILE: 03 - Blabla.flac
  Size: 44745009 Hash: E632CCE99ADD8E9EEDB249C14F775D1A Accuracy: -m0
  Conclusion: CDDA 100%
  Signature: 7E8FB38BE042BE72AEC905839038D1A72A88EB35
FILE: 02 - Whispering Noise.flac
  Size: 55330915 Hash: 1E72812FAD6091E83D3BC8FC79468A9C Accuracy: -m0
  Conclusion: CDDA 100%
  Signature: A0290F101F0BF695B96248FFB49954A7897FBFC3
FILE: 01 - Natural Correlation.flac
  Size: 51989311 Hash: 6ADB89B089532E2187554CB08ABE2A43 Accuracy: -m0
  Conclusion: CDDA 100%
  Signature: 909044AC09FCA1E5FE66BCB892C3F01404E2D63B


 
Не забывайте говорить Спасибо. Не уходите с раздачи!   
Торрент: Зарегистрирован [28 июн 2018, 07:51] Скачать торрент
Скачать торрент
[ Размер 18.03 КБ / Просмотров 11 ]
Статус:
Проверен
 
.torrent скачан: 0 раз
Хэш: 7b1ab7d79675b62f3171a31aac90b3971866f1d7
Размер: 869.02 МБ (911 229 030 байт)
Стать Автором раздачи
 
 
Раздал: 0 байт
Скачал: 0 байт
Ратио: Inf.
Сообщения: 487468
Зарегистрирован: 17 апр 2014, 13:57


  • Похожие торренты
    Ответы
    Просмотры
    Последнее сообщение

Вернуться в PsyChill, Ambient Dub (lossless)

Ресурс не предоставляет электронные версии произведений, а занимается лишь коллекционированием и каталогизацией ссылок, присылаемых и публикуемых на форуме нашими читателями. Если вы являетесь правообладателем какого-либо представленного материала и не желаете чтобы ссылка на него находилась в нашем каталоге, свяжитесь с нами и мы незамедлительно удалим её. Файлы для обмена на трекере предоставлены пользователями сайта, и администрация не несёт ответственности за их содержание. Просьба не заливать файлы, защищенные авторскими правами, а также файлы нелегального содержания!
cron