Фантастическая четверка: Вторжение Серебряного серфера / 4: Rise of the Silver Surfer (Тим Стори / Tim Story) [2007, США, Германия, Великобритания, фантастика, фэнтези, боевик, триллер, приключения, WEB-DLRip] [Open Matte] Dub

 
 Статистика раздачи 
Размер: 1.46 ГБ   |  Зарегистрирован: 28 июн 2018, 04:57   |   .torrent скачан: 0 раз
Сидеров: 1  [ 0 байт/сек ]     Личеров: 0  [ 0 байт/сек ]  
  

Фантастическая четверка: Вторжение Серебряного серфера / 4: Rise of the Silver Surfer (Тим Стори / Tim Story) [2007, США, Германия, Великобритания, фантастика, фэнтези, боевик, триллер, приключения, WEB-DLRip] [Open Matte] Dub

Сообщение Nakazhu » 28 июн 2018, 08:03

Фантастическая четверка: Вторжение Серебряного серфера / 4: Rise of the Silver Surfer
Страна: США, Германия, Великобритания
Жанр: фантастика, фэнтези, боевик, триллер, приключения
Год выпуска: 2007
Продолжительность: 01:32:04
Перевод: Профессиональный (дублированный)
Субтитры: нет
Оригинальная аудиодорожка: нет
Режиссер:
Тим Стори / Tim Story
В ролях:
Йоан Гриффит, Джессика Альба, Крис Эванс, Майкл Чиклис, Джулиан МакМэхон, Даг Джонс, Лоренс Фишбёрн, Керри Вашингтон, Андре Брогер, Бо Гарретт
Описание:
Фантастическая четверка получает вызов со стороны великого и могучего Серебряного Серфера — таинственного межгалактического вестника, который прилетает на Землю, чтобы подготовить ее к полному разрушению. Пока Серебряный Серфер носится по всему земному шару, разрушая все на своём пути, Рид, Сью, Джонни и Бен должны разгадать его тайну и найти способ противостоять внезапному появлению их смертельного врага — доктора Дума.

Качество видео: WEB-DLRip
Формат видео: AVI
Видео: 720x400 (1.80:1), 23.976 fps, XviD build 73 ~1812 kbps avg, 0.26 bit/pixel
Аудио: 48 kHz, AC3 Dolby Digital, 3/2 (L,C,R,l,r) + LFE ch, ~448 kbps
Сэмпл[/spoiler]
Код: Выделить всё
Код:
Код: Выделить всё
Format                      : AVI
Format/Info                 : Audio Video Interleave
File size                   : 1.46 GiB
Duration                    : 1 h 32 min
Overall bit rate            : 2 270 kb/s
Writing application         : VirtualDubMod 1.5.10.3 | www.virtualdub-fr.org || (build 2550/release)
Writing library             : VirtualDubMod build 2550/release
Video
ID                          : 0
Format                      : MPEG-4 Visual
Format profile              : Advanced Simple@L5
Format settings             : BVOP1 / Custom Matrix
Format settings, BVOP       : 1
Format settings, QPel       : No
Format settings, GMC        : No warppoints
Format settings, Matrix     : Custom
Codec ID                    : XVID
Codec ID/Hint               : XviD
Duration                    : 1 h 32 min
Bit rate                    : 1 813 kb/s
Width                       : 720 pixels
Height                      : 400 pixels
Display aspect ratio        : 16:9
Frame rate                  : 23.976 (24000/1001) FPS
Color space                 : YUV
Chroma subsampling          : 4:2:0
Bit depth                   : 8 bits
Scan type                   : Progressive
Compression mode            : Lossy
Bits/(Pixel*Frame)          : 0.263
Stream size                 : 1.17 GiB (80%)
Writing library             : XviD 73
Audio
ID                          : 1
Format                      : AC-3
Format/Info                 : Audio Coding 3
Codec ID                    : 2000
Duration                    : 1 h 32 min
Bit rate mode               : Constant
Bit rate                    : 448 kb/s
Channel(s)                  : 6 channels
Channel positions           : Front: L C R, Side: L R, LFE
Sampling rate               : 48.0 kHz
Frame rate                  : 31.250 FPS (1536 SPF)
Bit depth                   : 16 bits
Compression mode            : Lossy
Stream size                 : 295 MiB (20%)
Alignment                   : Split accross interleaves
Interleave, duration        : 42  ms (1.00 video frame)
Interleave, preload duratio : 500  ms
Service kind                : Complete Main


 
Не забывайте говорить Спасибо. Не уходите с раздачи!   
Торрент: Зарегистрирован [28 июн 2018, 04:57] Скачать торрент
Скачать торрент
[ Размер 15.16 КБ / Просмотров 1 ]
Статус:
Проверен
 
.torrent скачан: 0 раз
Хэш: 7df9320e0b3d3a50f6ef8b485dfed4531ab1fe46
Размер: 1.46 ГБ (1 567 332 352 байт)
Стать Автором раздачи
 
 
Раздал: 0 байт
Скачал: 0 байт
Ратио: Inf.
Сообщения: 487468
Зарегистрирован: 17 апр 2014, 13:57


  • Похожие торренты
    Ответы
    Просмотры
    Последнее сообщение

Вернуться в Зарубежные фильмы 2006-2010 года

Ресурс не предоставляет электронные версии произведений, а занимается лишь коллекционированием и каталогизацией ссылок, присылаемых и публикуемых на форуме нашими читателями. Если вы являетесь правообладателем какого-либо представленного материала и не желаете чтобы ссылка на него находилась в нашем каталоге, свяжитесь с нами и мы незамедлительно удалим её. Файлы для обмена на трекере предоставлены пользователями сайта, и администрация не несёт ответственности за их содержание. Просьба не заливать файлы, защищенные авторскими правами, а также файлы нелегального содержания!
cron