Призраки / Пронизывающий ветер / Wind Chill (Грегори Джейкобс / Gregory Jacobs) [2007, США, Канада, Великобритания, ужасы, триллер, драма, WEB-DLRip] [Open Matte] MVO (R5) + AVO (А.Дольский) + Sub Eng

 
 Статистика раздачи 
Размер: 1.6 ГБ   |  Зарегистрирован: 27 июн 2018, 16:30   |   .torrent скачан: 0 раз
Сидеров: 1  [ 0 байт/сек ]     Личеров: 0  [ 0 байт/сек ]  
  

Призраки / Пронизывающий ветер / Wind Chill (Грегори Джейкобс / Gregory Jacobs) [2007, США, Канада, Великобритания, ужасы, триллер, драма, WEB-DLRip] [Open Matte] MVO (R5) + AVO (А.Дольский) + Sub Eng

Сообщение Nakazhu » 27 июн 2018, 20:10

Призраки / Пронизывающий ветер / Wind Chill
Страна: США, Канада, Великобритания
Жанр: ужасы, триллер, драма
Год выпуска: 2007
Продолжительность: 01:30:57
Перевод 1: Профессиональный (многоголосый закадровый) R5
Перевод 2: Авторский (одноголосый закадровый) А.Дольский
Субтитры: английские
Оригинальная аудиодорожка: нет
Режиссер: Грегори Джейкобс / Gregory Jacobs
В ролях: Эмили Блант (Дьявол носит «Prada», Человек-волк), Эштон Холмс, Мартин Донован, Нед Беллами, Йен А. Уоллес, Донни Джеймс Лукас, Челан Симмонс, Даррен Мур, Линден Бэнкс и др.
Описание: Ежегодно в мире бесследно исчезают тысячи людей. Как правило, тому всегда можно, подобрать рациональное объяснение. Но бывает и по-другому…
Пара студентов, поехав домой на каникулы, решает воспользоваться дорогой, явно не пользующейся большой популярностью. Увы, слишком поздно герои вспоминают, что не следует доверять коротким; но заброшенным путям.
Первая же ночь в этой пустынной местности проясняет, почему она так безлюдна: жаждущие крови призраки погибших на этой дороге восстают в сумерках из могил, дабы охотиться на незваных гостей. И если герои не найдут способа дать отпор злобным мертвецам, они никогда больше не увидят своих родных и близких…
Качество видео: WEB-DLRip
Формат видео: AVI
Видео: 720x400 (1.80:1), 23.976 fps, XviD build 73 ~1906 kbps avg, 0.28 bit/pixel
Аудио 1: 48 kHz, AC3 Dolby Digital, 3/2 (L,C,R,l,r) + LFE ch, ~384 kbps | R5
Аудио 2: 48 kHz, AC3 Dolby Digital, 2/0 (L,R) ch, ~224 kbps | AVO - [отдельно]
Сэмпл[/spoiler]


Код: Выделить всё
Код:
Код: Выделить всё
Format                      : AVI
Format/Info                 : Audio Video Interleave
File size                   : 1.46 GiB
Duration                    : 1 h 30 min
Overall bit rate            : 2 300 kb/s
Writing application         : VirtualDubMod 1.5.10.3 | www.virtualdub-fr.org || (build 2550/release)
Writing library             : VirtualDubMod build 2550/release
Video
ID                          : 0
Format                      : MPEG-4 Visual
Format profile              : Advanced Simple@L5
Format settings             : BVOP1
Format settings, BVOP       : 1
Format settings, QPel       : No
Format settings, GMC        : No warppoints
Format settings, Matrix     : Default (MPEG)
Codec ID                    : XVID
Codec ID/Hint               : XviD
Duration                    : 1 h 30 min
Bit rate                    : 1 907 kb/s
Width                       : 720 pixels
Height                      : 400 pixels
Display aspect ratio        : 16:9
Frame rate                  : 23.976 (24000/1001) FPS
Color space                 : YUV
Chroma subsampling          : 4:2:0
Bit depth                   : 8 bits
Scan type                   : Progressive
Compression mode            : Lossy
Bits/(Pixel*Frame)          : 0.276
Stream size                 : 1.21 GiB (83%)
Writing library             : XviD 73
Audio
ID                          : 1
Format                      : AC-3
Format/Info                 : Audio Coding 3
Codec ID                    : 2000
Duration                    : 1 h 30 min
Bit rate mode               : Constant
Bit rate                    : 384 kb/s
Channel(s)                  : 6 channels
Channel positions           : Front: L C R, Side: L R, LFE
Sampling rate               : 48.0 kHz
Frame rate                  : 31.250 FPS (1536 SPF)
Bit depth                   : 16 bits
Compression mode            : Lossy
Stream size                 : 250 MiB (17%)
Alignment                   : Split accross interleaves
Interleave, duration        : 42  ms (1.00 video frame)
Interleave, preload duratio : 500  ms
Service kind                : Complete Main


 
Не забывайте говорить Спасибо. Не уходите с раздачи!   
Торрент: Зарегистрирован [27 июн 2018, 16:30] Скачать торрент
Скачать торрент
[ Размер 16.74 КБ / Просмотров 1 ]
Статус:
Проверен
 
.torrent скачан: 0 раз
Хэш: 9468a84eb5878d0cec143676dfd38cf8bf25a20f
Размер: 1.6 ГБ (1 721 937 395 байт)
Стать Автором раздачи
 
 
Раздал: 0 байт
Скачал: 0 байт
Ратио: Inf.
Сообщения: 487468
Зарегистрирован: 17 апр 2014, 13:57


  • Похожие торренты
    Ответы
    Просмотры
    Последнее сообщение

Вернуться в Зарубежные фильмы 2006-2010 года

Ресурс не предоставляет электронные версии произведений, а занимается лишь коллекционированием и каталогизацией ссылок, присылаемых и публикуемых на форуме нашими читателями. Если вы являетесь правообладателем какого-либо представленного материала и не желаете чтобы ссылка на него находилась в нашем каталоге, свяжитесь с нами и мы незамедлительно удалим её. Файлы для обмена на трекере предоставлены пользователями сайта, и администрация не несёт ответственности за их содержание. Просьба не заливать файлы, защищенные авторскими правами, а также файлы нелегального содержания!
cron