WAZ: Камера пыток / w Delta z (2007) BDRip-AVC от ExKinoRay | D

 
 Статистика раздачи 
Размер: 746 МБ   |  Зарегистрирован: 27 июн 2018, 18:05   |   .torrent скачан: 0 раз
Сидеров: 1  [ 0 байт/сек ]     Личеров: 0  [ 0 байт/сек ]  
  

WAZ: Камера пыток / w Delta z (2007) BDRip-AVC от ExKinoRay | D

Сообщение Lester » 27 июн 2018, 19:01

Информация о фильме
Название: WAZ: Камера пыток
Оригинальное название: w Delta z / The Killing Gene
Год выхода: 2007
Жанр: Ужасы, триллер, драма, криминал
Режиссер: Том Шенклэнд
В ролях: Стеллан Скарсгард, Мелисса Джордж, Сэльма Блэр, Эшли Уолтерс, Джон Шэриан, Том Харди, Пол Кэй, Барбара Эдейр, Питер Бэлланс, Салли Хокинс

О фильме :
Детектив Эдди Арго и его напарница Хелен Уэсткотт расследуют цепь жестоких убийств, жертвами которых становятся члены одной из мелких преступных группировок города. Рассчетливый убийца постепенно подводит детектива к расплате за ошибки, допущенные в далеком прошлом, и задает ему главный вопрос — «Сможешь ли ты убить того, кого сильно любишь, чтобы спасти свою собственную жизнь?»…



Страна: Великобритания
Студия: Vertigo Films, Ingenious Media
Продолжительность: 01:43:48
Перевод: Профессиональный (полное дублирование)

Файл
Формат: MKV
Качество: BDRip-AVC (BDRemux 1080p)
Видео: MPEG-4 AVC, 752x424, ~ 927 Кбит/с
Аудио: AAC-HE, 2 ch, ~ 76 Кбит/с
Субтитры: Русские, английские

Общее
Уникальный идентификатор : 240258371838301386430263322925241080575 (0xB4C0144B1FE73C0FA914CD3F806E1AFF)
Полное имя : D:MOVIESw Delta z.2007.ExKinoRay.mkv
Формат : Matroska
Версия формата : Version 4 / Version 2
Размер файла : 746 Мбайт
Продолжительность : 1 ч. 43 м.
Общий поток : 1005 Кбит/сек
Дата кодирования : UTC 2018-06-27 13:37:54
Программа кодирования : mkvmerge v15.0.0 ('Duel with the Devil') 64-bit
Библиотека кодирования : libebml v1.3.5 + libmatroska v1.4.5

Видео
Идентификатор : 1
Формат : AVC
Формат/Информация : Advanced Video Codec
Профиль формата : High@L4.1
Параметр CABAC формата : Да
Параметр RefFrames формата : 10 кадров
Идентификатор кодека : V_MPEG4/ISO/AVC
Продолжительность : 1 ч. 43 м.
Битрейт : 927 Кбит/сек
Ширина : 752 пикселя
Высота : 424 пикселя
Соотношение сторон : 16:9
Режим частоты кадров : Постоянный
Частота кадров : 24,000 кадра/сек
Цветовое пространство : YUV
Субдискретизация насыщенности : 4:2:0
Битовая глубина : 8 бит
Тип развёртки : Прогрессивная
Бит/(Пиксели*Кадры) : 0.121
Размер потока : 688 Мбайт (92%)
Библиотека кодирования : x264 core 152 r2851kMod ba24899
Настройки программы : cabac=1 / ref=10 / deblock=1:-3:-3 / analyse=0x3:0x133 / me=umh / subme=11 / psy=1 / fade_compensate=0.00 / psy_rd=1.00:0.10 / mixed_ref=1 / me_range=32 / chroma_me=1 / trellis=2 / 8x8dct=1 / cqm=0 / deadzone=21,11 / fast_pskip=0 / chroma_qp_offset=-3 / threads=6 / lookahead_threads=1 / sliced_threads=0 / nr=0 / decimate=0 / interlaced=0 / bluray_compat=0 / constrained_intra=0 / bframes=10 / b_pyramid=2 / b_adapt=2 / b_bias=0 / direct=3 / weightb=1 / open_gop=0 / weightp=2 / keyint=240 / keyint_min=23 / scenecut=40 / intra_refresh=0 / rc_lookahead=40 / rc=2pass / mbtree=1 / bitrate=927 / ratetol=1.0 / qcomp=0.60 / qpmin=0 / qpmax=69 / qpstep=4 / cplxblur=20.0 / qblur=0.5 / vbv_maxrate=50000 / vbv_bufsize=62500 / nal_hrd=none / filler=0 / ip_ratio=1.40 / aq=3:1.00
Default : Да
Forced : Нет

Аудио
Идентификатор : 2
Формат : AAC
Формат/Информация : Advanced Audio Codec
Профиль формата : HE-AAC / LC
Идентификатор кодека : A_AAC
Продолжительность : 1 ч. 43 м.
Битрейт : 76,0 Кбит/сек
Каналы : 2 канала
Расположение каналов : Front: L R
Частота : 48,0 КГц / 24,0 КГц
Частота кадров : 23,438 кадра/сек (1024 SPF)
Метод сжатия : С потерями
Задержка видео : 31 мс.
Размер потока : 56,4 Мбайт (8%)
Default : Да
Forced : Нет

Текст #1
Идентификатор : 3
Формат : UTF-8
Идентификатор кодека : S_TEXT/UTF8
Идентификатор кодека/Информация : UTF-8 Plain Text
Продолжительность : 1 ч. 38 м.
Битрейт : 58 бит/сек
ElementCount : 786
Размер потока : 42,7 Кбайт (0%)
Язык : Russian
Default : Нет
Forced : Нет

Текст #2
Идентификатор : 4
Формат : UTF-8
Идентификатор кодека : S_TEXT/UTF8
Идентификатор кодека/Информация : UTF-8 Plain Text
Продолжительность : 1 ч. 36 м.
Битрейт : 38 бит/сек
ElementCount : 976
Размер потока : 27,4 Кбайт (0%)
Язык : English
Default : Нет
Forced : Нет

Меню
00:00:00.000 : :Chapter 01
00:06:33.708 : :Chapter 02
00:13:38.375 : :Chapter 03
00:18:22.208 : :Chapter 04
00:22:54.750 : :Chapter 05
00:28:08.375 : :Chapter 06
00:33:42.625 : :Chapter 07
00:39:44.958 : :Chapter 08
00:44:15.083 : :Chapter 09
00:49:31.708 : :Chapter 10
00:54:11.333 : :Chapter 11
00:57:08.708 : :Chapter 12
01:02:33.000 : :Chapter 13
01:06:24.000 : :Chapter 14
01:11:08.125 : :Chapter 15
01:15:45.541 : :Chapter 16
01:19:40.083 : :Chapter 17
01:23:33.583 : :Chapter 18
01:37:12.625 : :Chapter 19
01:40:02.708 : :Chapter 20




Релиз от:
 
Не забывайте говорить Спасибо. Не уходите с раздачи!   
Торрент: Зарегистрирован [27 июн 2018, 18:05] Для скачивания .torrent
необходима регистрация
Или скачать с помощью
MediaGet
Статус:
Проверен
 
.torrent скачан: 0 раз
Хэш: 4ed77158a7cb3ed7830c3deda04e3fe3ba54549c
Размер: 746 МБ (782 239 779 байт)
Стать Автором раздачи
 
 
Раздал: 100 ГБ
Скачал: 0 байт
Ратио: Seed.
Сообщения: 120587
Зарегистрирован: 09 апр 2015, 23:00


  • Похожие торренты
    Ответы
    Просмотры
    Последнее сообщение

Вернуться в Зарубежные фильмы 2006-2010 года

Ресурс не предоставляет электронные версии произведений, а занимается лишь коллекционированием и каталогизацией ссылок, присылаемых и публикуемых на форуме нашими читателями. Если вы являетесь правообладателем какого-либо представленного материала и не желаете чтобы ссылка на него находилась в нашем каталоге, свяжитесь с нами и мы незамедлительно удалим её. Файлы для обмена на трекере предоставлены пользователями сайта, и администрация не несёт ответственности за их содержание. Просьба не заливать файлы, защищенные авторскими правами, а также файлы нелегального содержания!
cron