Вой 6: Уродцы / Вой 6: Уроды Харкера / Последняя атака / Howling VI: Freaks / Final Attack (Хоуп Парелло / Hope Perello) [1991, Великобритания, ужасы, DVDRip] AVO (Володарский) + AVO (Прямостанов)

Фильмы категории "Б" / малобюджетные фильмы эксплуатационного кино / киномусор
 
 Статистика раздачи 
Размер: 1.5 ГБ   |  Зарегистрирован: 26 июн 2018, 17:34   |   .torrent скачан: 0 раз
Сидеров: 1  [ 0 байт/сек ]     Личеров: 0  [ 0 байт/сек ]  
  

Вой 6: Уродцы / Вой 6: Уроды Харкера / Последняя атака / Howling VI: Freaks / Final Attack (Хоуп Парелло / Hope Perello) [1991, Великобритания, ужасы, DVDRip] AVO (Володарский) + AVO (Прямостанов)

Сообщение Nakazhu » 26 июн 2018, 17:34

Вой 6: Уродцы / Вой 6: Уроды Харкера / Последняя атака / Howling VI: Freaks / Final Attack
«'Vampire vs. Werewolf. The Ultimate Clash of the Forces of Evil.'»
Страна: Великобритания
Жанр: ужасы
Год выпуска: 1991
Продолжительность: 01:34:20
Перевод: Авторский (одноголосый закадровый) Леонид Володарский
Перевод: Авторский (одноголосый закадровый) Павел Прямостанов
Субтитры: нет
Режиссер: Хоуп Парелло / Hope Perello
В ролях: Брендан Хьюз, Мишель Мэтисон, Шон Грегори Салливан, Антонио Фаргас, Кэрол Линли
Описание: В маленьком городке таинственным образом пропадают люди. Кто стоит за этими происшествиями? Правду знает только один человек — скромный парень, который на самом деле не так уж и прост. При полной луне он превращается в оборотня и жаждет лишь одного — расквитаться со своим давним врагом-вампиром, возглавляющим бродячий цирк. Жителей городка ждет грандиозная битва монстров, которая перевернет всю их жизнь!
Доп. информация: Звуковая дорожка (Володарский) с VHSRip от alenavova
Синхрон Sp1end1d
Дорожка с П. Прямостановым синхронизирована и наложена ale_x2008 при помощи Adobe Audition, Sony Vegas и VirtualDubMod.
За оцифрованную с VHS дорожку благодарим - alenavova

Релиз
СЕМПЛ https://yadi.sk/i/Tni97T1t3YRuWn
Качество видео: DVDRip
Формат видео: AVI
Видео: 640x480 (1.33:1), 25 fps, XviD build 50 ~1871 kbps avg, 0.24 bit/pixel
Аудио: 48 kHz, AC3 Dolby Digital, 2/0 (L,R) ch, ~192 kbps
Аудио 2: AC3 Dolby Digital, 48000Hz 2/0 (L,R) ch (mono), 192 kbps avg
Вой-6 - Howling VI [by Edich2].avi
Format : AVI
Format/Info : Audio Video Interleave
File size : 1.37 GiB
Duration : 1h 34mn
Overall bit rate : 2 074 Kbps
Movie name : Вой-6 - Howling VI [by Edich2]
Director : by Edich2
Writing application : VirtualDubModRus 1.5.10.2 (build 2542/release)
Comment : RuTracker.org
Video
ID : 0
Format : MPEG-4 Visual
Format profile : Advanced Simple@L5
Format settings, BVOP : 1
Format settings, QPel : No
Format settings, GMC : No warppoints
Format settings, Matrix : Default (H.263)
Codec ID : XVID
Codec ID/Hint : XviD
Duration : 1h 34mn
Bit rate : 1 872 Kbps
Width : 640 pixels
Height : 480 pixels
Display aspect ratio : 4:3
Frame rate : 25.000 fps
Color space : YUV
Chroma subsampling : 4:2:0
Bit depth : 8 bits
Scan type : Progressive
Compression mode : Lossy
Bits/(Pixel*Frame) : 0.244
Stream size : 1.23 GiB (90%)
Writing library : XviD 1.2.1 (UTC 2008-12-04)
Audio
ID : 1
Format : AC-3
Format/Info : Audio Coding 3
Mode extension : CM (complete main)
Format settings, Endianness : Big
Codec ID : 2000
Duration : 1h 34mn
Bit rate mode : Constant
Bit rate : 192 Kbps
Channel count : 2 channels
Channel positions : Front: L R
Sampling rate : 48.0 KHz
Bit depth : 16 bits
Compression mode : Lossy
Stream size : 130 MiB (9%)
Alignment : Split accross interleaves
Interleave, duration : 40 ms (1.00 video frame)
Interleave, preload duration : 500 ms

ТОРРЕНТ ПЕРЕЗАЛИТ
ДОБАВЛЕНА ДОРОЖКА С ПЕРЕВОДОМ ПРЯМОСТАНОВА.
ФИЛЬМ В ЭТОМ ПЕРЕВОДЕ ВПЕРВЫЕ НА ТРЕКЕРЕ.
 
Не забывайте говорить Спасибо. Не уходите с раздачи!   
Торрент: Зарегистрирован [26 июн 2018, 17:34] Для скачивания .torrent
необходима регистрация
Или скачать с помощью
MediaGet
Статус:
Проверен
 
.torrent скачан: 0 раз
Хэш: 0d3460910261a0dc0e2bc838e52cd8a49858efdf
Размер: 1.5 ГБ (1 606 377 472 байт)
Стать Автором раздачи
 
 
Раздал: 0 байт
Скачал: 0 байт
Ратио: Inf.
Сообщения: 487468
Зарегистрирован: 17 апр 2014, 13:57


  • Похожие торренты
    Ответы
    Просмотры
    Последнее сообщение

Вернуться в Грайндхаус

Ресурс не предоставляет электронные версии произведений, а занимается лишь коллекционированием и каталогизацией ссылок, присылаемых и публикуемых на форуме нашими читателями. Если вы являетесь правообладателем какого-либо представленного материала и не желаете чтобы ссылка на него находилась в нашем каталоге, свяжитесь с нами и мы незамедлительно удалим её. Файлы для обмена на трекере предоставлены пользователями сайта, и администрация не несёт ответственности за их содержание. Просьба не заливать файлы, защищенные авторскими правами, а также файлы нелегального содержания!
cron